<?xml  version="1.0" encoding="UTF-8"?>
<!DOCTYPE svg PUBLIC "-//W3C//DTD SVG 1.0//EN" "http://www.w3.org/TR/2001/REC-SVG-20010904/DTD/svg10.dtd" >
<svg xmlns="http://www.w3.org/2000/svg" >
<metadata>
<version>1.0</version>
<id><![CDATA[Pontif LP W01 Regular]]></id>
<vendor>Monotype Imaging Inc.</vendor>
<credits>
<name>Fonts.com WebFonts</name>
<URL>http://webfonts.fonts.com</URL>
<role>Home of the Web fonts</role>
</credits>
<license>
<URL>http://webfonts.fonts.com/Legal</URL>
</license>
<copyright><![CDATA[v4.0; Copyright 1995 Garrett Boge, LetterPerfect Fonts; ALL RIGHTS RESERVED]]></copyright>
<trademark><![CDATA["Pontif" is a trademark of LetterPerfect Fonts]]></trademark>
<licensee>
<name></name>
</licensee>
</metadata>
<defs >
<font horiz-adv-x="582" id="a739e6db-6fca-471f-b403-3ded471bccaf">
<font-face font-family="" panose-1="2 0 0 0 0 0 0 0 0 0" ascent="831" descent="-169" units-per-em="1000" alphabetic="0">
</font-face>
<missing-glyph horiz-adv-x="0" />

<glyph unicode="&#xA;" />
<glyph unicode="&#xD;" horiz-adv-x="0" />
<glyph unicode=" " horiz-adv-x="329" />
<glyph unicode="!" horiz-adv-x="289" d="M188 32Q188 14 175 1T144 -12Q126 -12 114 1T101 32Q101 50 113 62T144 75Q162 75 175 63T188 32ZM188 704Q183 606 176 472T161 189H128Q125 263 122 334T115 472T108 597T102 704Q100 731 101 746T106 769T120 779T146 781Q162 781 171 779T184 770T188 747T188 704Z"  />
<glyph unicode="&quot;" horiz-adv-x="341" d="M138 757Q136 742 132 715T124 662Q120 631 114 598H91Q85 631 81 662Q77 688 73 715T67 757Q65 768 72 774T103 781Q126 781 133 775T138 757ZM279 757Q277 742 274 715T266 662Q262 631 256 598H232Q227 631 223 662Q219 688 215 715T209 757Q207 768 214 774T245 781Q268 781 274 775T279 757Z"  />
<glyph unicode="#" horiz-adv-x="688" d="M448 425H270L245 247H423L448 425ZM634 466L618 425H489L464 247H602L587 206H459L434 47L390 30L417 206H239L215 47L171 30L198 206H54L70 247H204L228 425H85L101 466H234L256 624L301 641L276 466H454L475 624L520 641L495 466H634Z"  />
<glyph unicode="$" horiz-adv-x="465" d="M348 154Q348 176 341 194T322 229T295 258T263 284V60Q298 68 323 90T348 154ZM228 619Q187 613 165 591T143 531Q143 510 150 492T170 458T197 429T228 404V619ZM404 196Q404 159 393 132T362 85T317 53T263 34V-57L228 -56V29Q182 25 142 33T57 56Q57 68 58 84T61 117T65 149T70 172L89 168Q83 133 93 111T123 75T171 58T228 55V309Q203 327 178 346T134 388T102 438T90 501Q90 561 128 598T228 644V731L263 730V646Q308 646 343 636T396 618Q394 604 391 577T382 526L367 529Q367 554 358 571T335 599T301 615T263 621V378Q286 361 311 343T356 302T390 254T404 196Z"  />
<glyph unicode="%" horiz-adv-x="750" d="M288 517Q288 560 281 590T262 639T234 666T200 675Q182 675 167 667T139 640T120 591T113 517Q113 473 120 443T139 395T166 368T200 359Q218 359 234 367T262 394T281 443T288 517ZM642 167Q642 210 635 240T616 289T588 316T554 325Q536 325 520 317T492 290T473 241T466 167Q466 123 473 93T492 45T520 18T554 9Q572 9 588 17T616 44T635 93T642 167ZM580 710L220 -32H175L535 711L580 710ZM347 517Q347 472 336 438T305 381T258 347T200 335Q169 335 143 346T97 381T66 438T54 517Q54 562 65 596T96 653T142 687T200 699Q231 699 258 688T304 654T335 597T347 517ZM701 167Q701 122 690 88T659 31T612 -3T554 -15Q523 -15 496 -4T450 31T419 88T407 167Q407 212 418 246T449 303T496 337T554 349Q585 349 612 338T658 303T689 246T701 167Z"  />
<glyph unicode="&amp;" horiz-adv-x="803" d="M523 104Q484 141 449 176T380 248T313 320T245 398Q221 379 201 358T164 313T139 260T130 198Q130 157 145 124T187 68T249 32T324 19Q388 19 435 40T523 104ZM413 633Q413 661 404 683T381 721T347 744T307 752Q259 752 232 721T204 633Q204 593 228 552T291 466Q316 484 338 502T377 541T403 584T413 633ZM837 35Q791 0 753 -10T681 -11T613 23T543 84Q500 36 445 11T322 -15Q265 -15 215 -4T126 33T66 99T44 197Q44 234 59 265T100 323T158 374T225 421Q188 466 166 511T143 604Q143 690 189 735T322 780Q346 780 371 773T417 751T451 710T465 649Q465 615 452 587T417 535T367 489T308 446Q341 406 372 371T434 301T498 234T566 167Q583 196 593 226T605 282Q608 314 587 330T503 349L506 372Q542 368 573 366T628 363Q656 363 687 365T755 371L757 348Q724 346 705 341T676 328T660 308T651 282Q640 250 624 213T588 146Q625 111 656 87T715 49T771 36T828 51Q832 43 833 41T836 36Q837 34 837 35Z"  />
<glyph unicode="&apos;" horiz-adv-x="199" d="M138 757Q136 742 132 715T124 662Q120 631 114 598H91Q85 631 81 662Q77 688 73 715T67 757Q65 768 72 774T103 781Q126 781 133 775T138 757Z"  />
<glyph unicode="(" horiz-adv-x="352" d="M319 -72L307 -86Q192 -8 129 111T66 377Q66 522 129 642T307 840L319 825Q278 787 246 746T192 652T159 532T147 377Q147 289 158 222T192 102T246 7T319 -72Z"  />
<glyph unicode=")" horiz-adv-x="352" d="M319 377Q319 231 256 112T78 -86L66 -72Q107 -35 139 7T193 102T226 222T238 377Q238 465 227 532T193 651T139 745T66 825L78 840Q193 762 256 642T319 377Z"  />
<glyph unicode="*" horiz-adv-x="291" d="M286 603L278 587L171 623Q166 606 161 587T151 552Q146 533 141 515L123 518L124 631Q107 630 88 630T51 628Q32 627 12 627L9 645L117 679Q111 695 104 713T91 747Q84 765 78 783L95 792L160 700Q174 711 188 722T217 745Q232 757 248 769L261 756L193 665Q207 655 223 645T254 625Q270 614 286 603Z"  />
<glyph unicode="+" horiz-adv-x="526" d="M456 340L473 298H286V111L244 128V298H74L57 340H244V527L286 510V340H456Z"  />
<glyph unicode="&#x2c;" horiz-adv-x="197" d="M136 44Q142 26 138 7T124 -32T97 -69T63 -102L48 -88Q70 -69 78 -54T87 -27T83 -5T70 16Q61 30 67 46T88 68Q108 76 119 67T136 44Z"  />
<glyph unicode="-" horiz-adv-x="341" d="M294 340L278 298H48L65 340H294Z"  />
<glyph unicode="." horiz-adv-x="203" d="M145 32Q145 14 132 1T101 -12Q83 -12 71 1T58 32Q58 50 70 62T101 75Q119 75 132 63T145 32Z"  />
<glyph unicode="/" horiz-adv-x="498" d="M486 808L60 -78H15L441 808H486Z"  />
<glyph unicode="0" horiz-adv-x="697" d="M532 334Q532 421 518 482T479 583T421 640T349 658Q310 658 277 640T219 583T180 483T166 334Q166 247 180 186T219 85T277 28T349 10Q387 10 420 28T478 85T517 185T532 334ZM610 334Q610 245 590 179T534 69T451 3T349 -19Q294 -19 247 3T164 69T108 179T88 334Q88 423 108 489T163 599T246 665T349 687Q403 687 451 665T534 599T589 489T610 334Z"  />
<glyph unicode="1" horiz-adv-x="379" d="M312 17L311 -1Q282 -5 247 -1T178 4Q143 4 108 0T44 -1L42 17Q84 13 110 25T136 70L138 570Q138 591 135 604T119 624T85 630T25 620L20 639Q45 644 72 650T126 662T175 675T218 689L224 685Q219 670 218 652T216 608L218 70Q219 37 244 25T312 17Z"  />
<glyph unicode="2" horiz-adv-x="529" d="M427 146Q424 120 421 101T417 65T414 33T412 0H42L40 9Q58 43 87 80T149 156T216 238T277 325T322 415T339 508Q339 576 311 616T221 657Q167 657 132 629T89 537H70Q72 571 73 598T72 660Q95 664 136 675T234 686Q319 686 368 646T418 524Q418 476 402 432T359 347T299 267T234 193T171 124T122 57L125 53H312Q336 53 352 55T378 67T396 96T408 147L427 146Z"  />
<glyph unicode="3" horiz-adv-x="529" d="M444 190Q444 143 427 105T381 41T310 0T221 -15Q161 -15 116 -4T49 12Q51 47 50 72T48 127H66Q70 92 83 70T117 36T165 20T224 15Q293 15 330 57T367 171Q367 216 354 251T314 311T242 345T136 350V384Q178 382 213 389T273 414T312 463T326 537Q326 562 320 584T302 623T270 650T225 660Q160 660 127 632T87 545H69Q70 574 71 599T70 660Q91 665 135 676T239 687Q282 687 313 676T364 646T394 600T404 544Q404 514 393 488T362 441T317 404T264 375Q300 368 333 354T390 316T429 261T444 190Z"  />
<glyph unicode="4" horiz-adv-x="607" d="M360 613L354 616Q322 579 285 527T213 420T149 311T102 221L104 217L359 216L360 613ZM534 225L516 159H432V70Q432 37 458 25T526 17L525 -1Q499 -5 465 -1T396 4Q361 4 328 0T266 -1L264 17Q306 13 332 25T358 70V159H115Q95 159 67 159T22 151L19 154Q36 192 60 236T113 328T173 423T238 516T303 602T364 675L432 689L436 686Q431 674 431 656T431 617V216H475Q486 216 503 218T531 228L534 225Z"  />
<glyph unicode="5" horiz-adv-x="534" d="M450 211Q450 162 431 121T379 50T303 4T210 -13Q161 -13 121 -4T63 12Q65 47 64 72T62 127H80Q84 92 96 71T126 37T167 21T218 17Q258 17 287 30T335 66T363 120T372 187Q372 247 350 288T290 351T204 373T104 350L83 354Q85 395 86 433T89 511T90 590T88 675H410Q408 640 408 609T409 544L389 541Q386 566 381 581T365 606T338 618T297 621H140Q136 570 135 509T135 392Q200 410 257 407T357 380T425 314T450 211Z"  />
<glyph unicode="6" horiz-adv-x="572" d="M497 217Q497 167 483 125T439 51T366 2T265 -16Q218 -16 179 4T110 63T65 157T48 284Q48 385 71 461T133 588T226 664T340 690Q384 690 411 681T459 665Q459 657 459 644T460 616T461 585T461 556L444 557Q435 617 407 638T339 660Q288 660 248 640T181 576T139 459T125 284Q125 150 166 83T277 15Q344 15 384 61T425 188Q425 219 418 249T395 304T356 343T300 358Q258 358 225 348T159 317L150 334Q182 360 227 378T325 397Q406 397 451 348T497 217Z"  />
<glyph unicode="7" horiz-adv-x="503" d="M438 667Q394 574 355 484T287 310T242 148T226 0H147Q151 60 174 135T230 293T302 459T378 621H164Q139 621 123 618T97 606T81 582T72 542L52 545Q54 581 54 610T51 675H436L438 667Z"  />
<glyph unicode="8" horiz-adv-x="572" d="M435 136Q435 170 419 198T377 251T317 298T247 341Q178 303 148 256T118 158Q118 120 130 93T164 47T216 21T281 12Q311 12 339 18T388 40T422 78T435 136ZM409 547Q409 598 374 630T280 663Q208 663 178 636T147 566Q147 540 159 517T193 473T243 431T302 393Q359 424 384 459T409 547ZM499 162Q499 118 481 85T431 30T361 -4T278 -16Q212 -16 169 -4T101 30T65 78T54 136Q54 205 99 258T224 356Q196 373 171 391T126 431T96 478T85 534Q85 606 137 648T288 690Q334 690 368 680T424 651T458 610T469 559Q469 507 434 462T325 379Q358 359 389 338T445 291T484 234T499 162Z"  />
<glyph unicode="9" horiz-adv-x="572" d="M497 390Q497 289 474 213T412 86T319 10T205 -16Q161 -16 134 -7T85 9Q85 17 85 30T84 58T83 88T83 118L99 117Q108 57 136 36T206 14Q257 14 297 34T364 98T406 215T420 391Q420 525 379 592T267 659Q200 659 160 613T120 486Q120 454 127 424T150 369T188 331T244 316Q286 316 319 326T385 357L394 340Q362 314 318 296T220 277Q139 277 94 326T48 457Q48 507 62 549T106 623T178 672T279 690Q326 690 366 670T435 611T480 516T497 390Z"  />
<glyph unicode=":" horiz-adv-x="204" d="M150 32Q150 14 138 1T107 -12Q89 -12 76 1T63 32Q63 50 76 62T107 75Q125 75 137 63T150 32ZM150 301Q150 283 138 271T107 258Q89 258 76 270T63 301Q63 319 76 332T107 345Q125 345 137 332T150 301Z"  />
<glyph unicode=";" horiz-adv-x="204" d="M142 44Q148 26 144 7T130 -32T103 -69T69 -102L54 -88Q75 -69 84 -54T93 -27T89 -5T76 16Q66 30 72 46T93 68Q113 76 125 67T142 44ZM150 301Q150 283 138 271T107 258Q89 258 76 270T63 301Q63 319 76 332T107 345Q125 345 137 332T150 301Z"  />
<glyph unicode="&lt;" horiz-adv-x="329" d="M253 415Q238 392 230 374T220 339T223 304T238 264L216 252Q205 275 194 290T167 314T133 328T87 335L90 360Q116 359 136 361T172 370T203 391T233 427L253 415Z"  />
<glyph unicode="=" horiz-adv-x="391" d="M347 281L330 239H42L59 281H347ZM347 399L330 357H42L59 399H347Z"  />
<glyph unicode="&gt;" horiz-adv-x="375" d="M291 481Q273 454 264 433T252 391T255 350T273 303L247 289Q234 316 221 333T190 362T149 379T95 387L99 416Q130 414 153 417T195 428T232 453T267 495L291 481Z"  />
<glyph unicode="?" horiz-adv-x="422" d="M219 32Q219 14 206 1T175 -12Q157 -12 145 1T132 32Q132 50 144 62T175 75Q193 75 206 63T219 32ZM377 619Q377 583 360 553T318 494T264 440T209 388T167 336T150 280Q150 249 168 232T219 214V185Q165 185 130 215T94 299Q94 339 110 371T151 432T205 485T258 535T299 588T316 647Q316 689 285 716T202 744Q180 744 159 738T120 719T93 682T82 626L65 623Q62 637 60 654T56 687T53 718T51 741Q60 745 75 751T109 763T152 773T199 777Q238 777 271 766T327 733T364 683T377 619Z"  />
<glyph unicode="@" horiz-adv-x="851" d="M767 397Q767 348 752 308T712 238T658 192T600 176Q583 176 564 181T529 199T503 234T492 290Q492 331 492 372T493 452Q493 458 492 464T486 477Q477 488 466 494T430 500Q380 500 346 454T312 322Q312 277 331 252T377 217T429 210T469 224L481 210Q454 184 415 178T340 187T279 238T254 330Q254 366 266 401T301 463T356 507T430 524Q465 524 485 514T519 495Q538 507 555 522L567 510Q558 501 553 488T547 450T545 385T545 282Q545 234 571 215T628 206T686 258T712 373Q712 520 643 591T443 663Q375 663 319 635T221 560T157 451T134 321Q134 253 154 196T210 98T297 34T409 11Q462 11 504 21T579 50T636 96T680 156L717 132Q667 54 590 19T403 -16Q327 -16 267 8T164 77T100 184T77 321Q77 397 106 464T185 581T303 661T446 690Q527 690 587 668T688 607T747 514T767 397Z"  />
<glyph unicode="A" horiz-adv-x="678" d="M421 335L318 618L215 335H421ZM691 -1Q680 -4 660 -2T612 2T553 4T488 -2L484 16Q508 18 517 32T519 66L436 294H201L118 66Q110 46 119 32T153 16L149 -2Q116 4 91 4T47 2T13 -2T-13 -1L-14 18Q-2 17 10 18T33 25T55 44T75 81L328 769Q333 784 339 785T352 769L609 80Q618 56 627 44T647 25T669 18T692 18L691 -1Z"  />
<glyph unicode="B" horiz-adv-x="611" d="M470 175Q470 234 453 276T408 345T347 384T281 397Q266 397 251 397T220 395L222 114Q222 84 232 66T257 39T291 27T324 24Q393 24 431 63T470 175ZM409 578Q409 611 400 641T373 695T332 731T280 745Q264 745 248 742T219 736L220 429Q272 421 308 428T366 454T399 504T409 578ZM558 205Q558 148 536 109T479 45T404 9T327 -3Q285 -3 249 1T179 5Q161 5 143 3T108 0T79 -3T59 -2L57 19Q72 17 86 19T111 28T128 47T135 79L138 690Q138 722 123 736T85 749L86 767Q101 770 124 767T178 764Q204 764 236 767T303 771Q345 771 379 758T437 723T473 670T486 603Q486 570 476 543T449 493T409 453T361 421Q398 413 433 397T496 353T541 290T558 205Z"  />
<glyph unicode="C" horiz-adv-x="792" d="M747 732Q745 700 741 665T731 594L713 597Q715 666 657 706T469 746Q403 746 348 724T252 658T188 548T165 394Q165 316 187 248T251 129T349 49T478 20Q541 20 585 30T657 60T701 112T722 184L742 182Q741 164 739 143T734 101T728 60T723 26Q691 17 661 10T601 -3Q570 -9 537 -11T464 -14Q375 -14 303 15T181 98T103 225T76 385Q76 465 106 536T189 662T315 747T474 779Q525 779 568 773T647 758Q670 752 695 745T747 732Z"  />
<glyph unicode="D" horiz-adv-x="858" d="M692 383Q692 459 672 525T614 639T518 715T388 743Q344 743 295 740T213 728L216 107Q216 64 261 45T400 25Q465 25 519 50T611 122T671 235T692 383ZM781 389Q781 312 755 241T682 114T568 26T420 -7Q352 -7 290 -2T173 3Q155 3 138 2T105 -1T78 -3T59 -2L57 18Q86 14 107 27T129 78L132 689Q132 722 112 735T68 749L69 767Q85 769 115 767T177 764Q196 764 227 765T291 769T357 773T412 775Q501 775 569 745T685 663T756 540T781 389Z"  />
<glyph unicode="E" horiz-adv-x="543" d="M486 114Q487 103 486 89T484 58T480 27T476 -1L59 0L57 19Q71 18 85 20T110 30T128 49T136 80L139 688Q139 721 122 734T82 747L83 766H459Q459 745 459 715T456 665L441 667Q443 693 430 710T389 727H219L221 425H406Q442 425 443 460L459 459Q461 450 459 432T456 397Q456 381 457 361T457 326L438 325Q440 358 431 372T393 386H221L223 106Q223 41 282 41H396Q437 41 452 61T470 116L486 114Z"  />
<glyph unicode="F" horiz-adv-x="528" d="M459 459Q461 450 459 432T456 397Q456 381 457 361T457 326L438 325Q440 358 431 372T393 386H221L222 78Q223 40 247 28T307 18L305 0Q297 -2 284 -2T253 0T217 4T179 6Q161 6 143 4T108 1T79 -1T59 0L57 19Q71 18 85 20T110 30T128 49T136 80L139 688Q139 721 122 734T82 747L83 766H459Q459 745 459 715T456 665L441 667Q443 693 430 710T389 727H219L221 425H406Q442 425 443 460L459 459Z"  />
<glyph unicode="G" horiz-adv-x="846" d="M798 331L797 311Q764 313 749 301T734 253Q735 187 735 129T736 21Q717 17 694 14T652 5Q608 -4 559 -9T464 -14Q375 -14 303 15T181 98T103 225T76 385Q76 465 106 536T189 662T315 747T474 779Q525 779 568 773T647 758Q670 752 695 745T747 732Q745 700 741 665T731 594L713 597Q715 666 657 706T469 746Q403 746 348 724T252 658T188 548T165 394Q165 316 187 248T251 129T349 49T478 20Q529 20 575 29T653 54L655 260Q655 290 641 301T598 313L599 331Q606 332 618 331T643 329T669 327T695 326Q719 326 749 329T798 331Z"  />
<glyph unicode="H" horiz-adv-x="795" d="M738 19L736 -1Q728 -3 716 -3T687 -1T653 3T616 5Q598 5 580 3T546 0T516 -2T496 -1L494 19Q509 17 523 19T548 28T566 47T573 79L574 364H220L222 79Q222 60 228 48T246 28T271 19T300 19L299 -1Q291 -3 279 -3T250 -1T215 3T179 5Q161 5 143 3T108 0T79 -2T59 -1L57 19Q72 17 86 19T111 28T128 47T135 79L138 691Q138 724 123 738T85 751L86 768Q101 772 124 768T179 763Q210 763 233 767T271 768L272 751Q249 752 234 738T219 691L220 403H574L576 691Q576 724 561 738T523 751L524 768Q539 772 562 768T616 763Q648 763 671 767T708 768L709 751Q686 752 671 738T656 691L660 79Q660 60 666 48T684 28T709 19T738 19Z"  />
<glyph unicode="I" horiz-adv-x="357" d="M300 19L299 -1Q291 -3 279 -3T250 -1T215 3T179 5Q161 5 143 3T108 0T79 -2T59 -1L57 19Q72 17 86 19T111 28T128 47T135 79L138 691Q138 724 123 738T85 751L86 768Q101 772 124 768T179 763Q210 763 233 767T271 768L272 751Q249 752 234 738T219 691L222 79Q222 60 228 48T246 28T271 19T300 19Z"  />
<glyph unicode="J" horiz-adv-x="330" d="M273 751Q250 752 236 738T221 691L223 93Q223 61 215 35T188 -16T141 -67T71 -127L58 -112Q77 -94 91 -76T116 -39T132 3T138 54L140 690Q140 723 125 737T87 751L88 768Q103 772 126 768T180 763Q212 763 235 767T273 768V751Z"  />
<glyph unicode="K" horiz-adv-x="649" d="M654 18L653 -1Q642 -4 617 -3T561 1T497 3T436 -2L433 16Q453 18 463 30T459 62L220 393L222 79Q222 60 228 48T246 28T271 19T300 19L299 -1Q291 -3 279 -3T250 -1T215 3T179 5Q161 5 143 3T108 0T79 -2T59 -1L57 19Q72 17 86 19T111 28T128 47T135 79L138 691Q138 724 123 738T85 751L86 768Q101 772 124 768T179 763Q210 763 233 767T271 768L272 751Q249 752 234 738T219 691L220 413L439 706Q453 724 451 736T429 750L432 768Q463 762 489 762T535 764T570 769T596 768L597 749Q568 751 540 741T493 707L292 440L541 90Q570 50 597 34T654 18Z"  />
<glyph unicode="L" horiz-adv-x="512" d="M486 114Q487 103 486 89T484 58T480 27T476 -1L59 0L57 19Q71 18 85 20T110 30T128 49T136 80L139 691Q139 724 124 738T85 751L86 768Q103 770 128 767T185 763Q216 763 243 766T286 768L287 751Q259 750 239 737T219 691L223 106Q223 41 282 41H396Q437 41 452 61T470 116L486 114Z"  />
<glyph unicode="M" horiz-adv-x="938" d="M902 16L901 -2Q890 -5 869 -3T819 1T759 3T694 -3L691 16Q737 20 734 66L702 596L465 7Q454 -22 442 7L213 594L168 66Q165 21 212 16L209 -3Q176 4 150 4T102 1T66 -3T39 -2L38 16Q70 14 95 28T123 81L173 665Q175 686 173 700T161 725T135 740T91 748V767Q99 770 114 768T148 764T190 761T237 767Q240 747 248 723T267 674Q275 653 288 619T318 544T352 457T387 367Q427 262 474 144Q528 281 573 394Q592 442 610 488T644 573T670 638T684 672Q706 727 712 767Q735 761 758 761T800 764T835 768T859 767V747Q832 745 815 740T790 724T779 700T779 664L817 81Q819 43 844 29T902 16Z"  />
<glyph unicode="N" horiz-adv-x="806" d="M752 749Q729 750 711 742T693 706L692 6Q692 -7 686 -7T673 2L184 637L186 59Q186 32 204 24T245 17L244 -2Q236 -4 225 -4T202 -2T176 0T153 1Q132 1 108 -1T63 -2V17Q91 16 112 25T134 67Q134 223 135 351Q135 405 135 458T136 554T137 627T137 665Q137 707 120 725T54 748V767Q62 770 78 769T115 765T160 763T208 768Q211 753 219 737T239 707Q243 701 262 676T311 612T377 526T450 430Q536 316 644 175L641 706Q641 734 623 742T582 749L583 767Q598 771 622 768T667 765Q687 765 712 768T751 767L752 749Z"  />
<glyph unicode="O" horiz-adv-x="926" d="M760 373Q760 442 736 508T670 627T569 712T443 745Q378 745 327 720T240 649T185 537T166 390Q166 321 190 255T256 137T356 54T482 22Q547 22 598 46T686 117T741 227T760 373ZM849 387Q849 287 814 212T723 87T598 11T462 -15Q389 -15 320 11T196 87T109 210T76 379Q76 479 111 554T202 679T326 755T462 781Q535 781 605 755T729 679T816 556T849 387Z"  />
<glyph unicode="P" horiz-adv-x="590" d="M549 567Q549 505 524 453T456 368T355 328T231 349L240 370Q305 347 350 355T422 390T462 458T474 543Q474 588 460 625T421 689T360 731T283 746Q267 746 249 743T219 737L222 110Q222 79 228 60T246 31T272 18T301 17L299 0Q291 -2 279 -2T250 0T215 3T179 5Q161 5 143 4T108 1T79 -1T59 0L57 17Q72 15 86 17T111 27T128 46T135 77L138 689Q138 722 123 736T85 749L86 766Q101 770 124 766T179 762Q210 762 245 767T327 772Q383 772 425 755T494 710T535 644T549 567Z"  />
<glyph unicode="Q" horiz-adv-x="913" d="M739 373Q739 442 716 508T652 627T554 712T432 744Q369 744 319 719T235 648T182 536T163 390Q163 321 186 255T250 137T348 54T470 22Q533 22 583 46T667 117T720 227T739 373ZM1452 -180Q1415 -204 1361 -217T1240 -231T1100 -217T947 -169Q902 -150 855 -127T762 -81T670 -35T582 9Q550 -2 516 -8T450 -15Q379 -15 312 11T193 87T108 210T76 379Q76 445 92 501T135 601T198 679T276 735T362 769T450 781Q522 781 589 755T709 679T794 556T826 387Q826 329 813 278T777 184T723 107T658 48Q767 -6 864 -52T1052 -133Q1118 -158 1172 -174T1274 -195T1362 -194T1442 -164L1452 -180Z"  />
<glyph unicode="R" horiz-adv-x="726" d="M456 539Q456 583 444 621T409 686T354 730T283 746Q266 746 248 743T219 738L220 358Q287 342 332 351T405 386T444 453T456 539ZM774 -2Q748 -7 720 -10T662 -10T605 6T554 45Q502 105 451 178T348 326Q337 323 321 322T288 320T253 321T221 327L222 111Q222 80 229 61T247 32T272 20T300 19L299 0Q291 -2 279 -2T250 0T215 4T179 6Q161 6 143 4T109 1T80 -1T60 0L58 19Q73 17 87 19T112 28T129 47T136 79L139 690Q139 722 124 736T86 749L87 767Q103 769 125 767T179 764Q210 764 245 768T327 773Q383 773 422 757T485 712T521 649T532 578Q532 512 505 459T423 361Q450 323 474 289T523 221T575 154T634 84Q667 46 697 26T770 16L774 -2Z"  />
<glyph unicode="S" horiz-adv-x="500" d="M459 201Q459 141 439 100T385 33T309 -3T225 -14Q179 -14 139 -3T65 21Q65 35 66 56T70 98T74 139T79 168L97 163Q92 134 97 108T118 61T164 28T239 16Q267 16 295 22T346 44T383 85T398 147Q398 195 376 230T322 297T251 357T180 419T125 495T103 595Q103 638 117 672T157 730T219 767T297 780Q323 780 346 776T390 766T425 754T449 744Q448 735 447 722T443 692T439 660T434 629L420 632Q420 665 409 688T379 725T339 746T292 752Q230 752 195 721T160 633Q160 588 182 553T237 487T309 425T381 362T437 290T459 201Z"  />
<glyph unicode="T" horiz-adv-x="599" d="M588 799Q589 790 584 771T576 733Q574 716 573 693T569 655L552 656Q557 683 546 704T503 726H337L340 78Q340 59 347 47T365 27T390 18T419 18L417 0Q409 -2 397 -2T368 0T334 4T297 6Q279 6 261 4T227 1T197 -1T177 0L176 18Q191 16 205 18T230 27T247 46T254 78L257 726H88Q60 726 47 704T27 656L11 657Q11 664 13 674T17 697T21 720T24 739Q26 758 26 774T27 799L42 800Q43 783 48 774T70 765H532Q570 765 572 800L588 799Z"  />
<glyph unicode="U" horiz-adv-x="763" d="M706 748Q683 749 669 741T654 705L655 226Q655 181 640 138T594 61T518 6T414 -15Q338 -15 285 0T200 45T153 120T138 228L141 690Q141 723 126 737T88 750L89 768Q103 772 126 768T181 763Q212 763 235 767T273 768L274 750Q251 751 236 737T221 690L224 243Q225 127 275 74T428 21Q462 21 495 34T553 72T594 135T610 222L609 705Q609 733 594 741T556 748L557 766Q572 770 591 767T631 764Q651 764 671 767T705 766L706 748Z"  />
<glyph unicode="V" horiz-adv-x="711" d="M716 750Q704 751 691 750T666 743T642 724T621 687L368 -5Q357 -34 347 -4L89 687Q80 711 69 724T45 743T20 750T-5 750L-4 768Q7 771 28 769T77 765T137 762T202 768L206 751Q182 749 176 736T177 701L378 149L578 701Q586 722 579 735T549 751L552 769Q585 762 610 762T655 764T689 769T715 768L716 750Z"  />
<glyph unicode="W" horiz-adv-x="986" d="M991 749Q979 750 966 750T941 743T917 724T896 686L643 -5Q638 -19 634 -19T624 -4L494 344L366 -5Q361 -19 357 -19T347 -4L89 687Q80 711 69 724T45 743T20 749T-5 749L-4 767Q7 770 28 768T76 764T134 761T199 768L203 750Q180 748 173 735T174 701L376 146L471 407L366 687Q357 711 346 724T323 743T298 749T273 749V767Q284 770 305 768T353 764T412 761T477 768L480 750Q457 748 450 735T451 701L514 528L577 701Q585 722 579 735T548 750L552 768Q585 761 610 761T654 763T688 768T713 767L714 749Q702 750 689 750T664 743T640 724T619 686L537 464L653 146L854 701Q862 722 856 735T826 750L829 768Q862 761 887 761T931 763T965 768T990 767L991 749Z"  />
<glyph unicode="X" horiz-adv-x="627" d="M647 18L646 -1Q635 -4 614 -2T564 2T503 4T438 -2L435 16Q452 21 459 34T456 65L302 331L148 65Q137 47 142 34T168 16L164 -2Q134 4 108 4T60 2T23 -2T-4 -1L-5 18Q7 17 20 17T47 23T75 40T102 73L279 374L101 689Q89 711 78 723T55 742T32 749T10 750L11 767Q22 770 41 768T86 764T142 762T205 768L208 751Q191 747 183 734T186 702L328 458L470 702Q491 740 450 751L454 768Q484 762 508 762T552 765T585 768T610 767L611 750Q588 752 563 743T519 701L351 415L543 79Q557 55 570 42T597 23T622 17T647 18Z"  />
<glyph unicode="Y" horiz-adv-x="590" d="M595 749Q583 750 572 749T548 742T525 723T501 688L342 374L343 77Q343 59 350 47T368 27T393 18T422 17L420 0Q412 -2 400 -2T371 0T337 4T300 6Q282 6 264 4T230 1T200 -1T180 0L178 17Q193 15 207 17T232 27T250 46T257 77L258 346L87 688Q76 710 65 723T42 742T19 749T-5 749L-4 767Q7 770 27 768T73 764T129 762T192 768L195 751Q179 746 172 735T175 702L316 418L461 702Q480 741 440 751L444 768Q474 762 497 762T538 764T569 768T594 767L595 749Z"  />
<glyph unicode="Z" horiz-adv-x="639" d="M612 755L146 46H525Q560 46 575 63T592 116L608 114Q609 103 608 89T606 58T602 27T598 0H35Q16 0 26 14L492 723H135Q77 723 77 668H61Q61 689 64 717T69 766H605Q620 766 612 755Z"  />
<glyph unicode="[" horiz-adv-x="338" d="M272 -73H85V821H272V795H173Q157 795 157 779V-26Q157 -35 161 -41T177 -47H272V-73Z"  />
<glyph unicode="\" horiz-adv-x="498" d="M486 -78H441L15 808H60L486 -78Z"  />
<glyph unicode="]" horiz-adv-x="338" d="M272 -73H85V-47H181Q192 -47 196 -41T201 -26V779Q201 795 185 795H85V821H272V-73Z"  />
<glyph unicode="^" horiz-adv-x="541" d="M480 373L460 355L276 498L92 355L72 373Q105 412 135 447Q161 477 187 507T228 554Q239 568 248 571T276 575Q294 575 303 572T324 554Q331 545 341 533T364 507T390 478T417 447Q447 412 480 373Z"  />
<glyph unicode="_" horiz-adv-x="658" d="M658 -92H0V-62H658V-92Z"  />
<glyph unicode="`" horiz-adv-x="382" d="M285 652L278 643L136 710Q127 715 127 723T138 749Q149 766 157 768T173 762L285 652Z"  />
<glyph unicode="a" horiz-adv-x="645" d="M401 294L303 544L205 294H401ZM657 -1Q646 -4 627 -2T582 1T526 3T464 -2L461 14Q484 16 493 28T494 58L415 259H191L113 58Q105 40 114 28T146 14L142 -2Q111 4 87 4T45 2T13 -2T-11 -1L-12 16Q-1 15 10 15T33 21T54 38T72 71L312 677Q317 691 323 691T335 677L579 71Q588 50 597 39T616 22T636 16T658 16L657 -1Z"  />
<glyph unicode="b" horiz-adv-x="578" d="M447 154Q447 206 431 243T388 303T330 338T268 349Q253 349 239 349T210 347L211 100Q211 73 221 58T245 34T276 24T308 22Q374 21 410 56T447 154ZM389 509Q389 538 380 564T355 611T316 644T266 656Q251 656 235 653T208 647L210 378Q307 364 348 399T389 509ZM530 180Q530 130 509 96T455 39T384 7T312 -3Q271 -3 237 0T170 4Q153 4 136 3T103 0T76 -2T56 -1L55 16Q83 13 106 25T129 69L132 606Q132 635 118 647T82 658V674Q96 677 118 675T170 672Q195 672 225 675T288 679Q325 679 357 667T412 635T448 587T462 530Q462 500 453 477T427 434T389 399T343 370Q379 364 412 349T472 311T514 255T530 180Z"  />
<glyph unicode="c" horiz-adv-x="762" d="M711 644Q708 616 704 585T695 523L678 526Q680 586 625 621T447 656Q384 656 331 637T240 579T180 482T158 347Q158 278 179 218T239 113T333 43T455 17Q514 17 556 26T625 53T667 98T687 162L705 160Q704 145 702 126T698 89T693 53T688 23Q657 15 629 9T572 -3Q543 -8 511 -10T442 -12Q357 -12 289 14T172 87T99 198T73 339Q73 409 101 472T180 583T300 658T451 686Q500 686 541 681T616 667Q638 662 661 656T711 644Z"  />
<glyph unicode="d" horiz-adv-x="816" d="M658 337Q658 404 639 462T583 562T493 629T369 654Q348 654 326 653T281 651T238 646T203 640L206 94Q206 56 249 39T380 22Q442 22 493 44T581 108T638 207T658 337ZM743 342Q743 274 718 212T648 101T540 23T400 -6Q335 -6 276 -2T164 3Q129 3 100 -1T56 -2L55 16Q83 13 103 24T123 69L126 606Q126 635 107 647T65 659L66 675Q81 677 110 675T169 672Q187 672 216 673T277 677T340 680T392 682Q476 682 541 656T652 583T720 475T743 342Z"  />
<glyph unicode="e" horiz-adv-x="513" d="M463 100Q463 91 462 78T460 50T456 23T453 -1L56 0L55 17Q68 16 81 18T105 26T122 42T129 70L132 605Q132 634 117 646T79 658L80 674H437Q437 656 437 630T434 585L419 587Q422 610 410 625T370 640H209L210 374H386Q420 374 421 405L437 404Q438 396 436 380T434 349Q434 335 435 318T435 287L417 286Q419 315 410 327T374 340H211L212 93Q212 63 226 50T268 36H377Q416 36 430 53T447 102L463 100Z"  />
<glyph unicode="f" horiz-adv-x="490" d="M437 404Q438 396 436 380T434 349Q434 335 435 318T435 287L417 286Q419 315 410 327T374 340H211L212 69Q212 36 235 26T292 16L291 0Q284 -2 271 -2T242 0T207 3T171 5Q153 5 136 4T103 1T76 -1T56 0L55 17Q68 16 81 18T105 26T122 42T129 70L132 605Q132 634 117 646T79 658L80 674H437Q437 656 437 630T434 585L419 587Q422 610 410 625T370 640H209L210 374H386Q420 374 421 405L437 404Z"  />
<glyph unicode="g" horiz-adv-x="805" d="M758 291V274Q726 276 712 265T698 223Q699 165 699 114T700 18Q682 16 660 12T620 5Q578 -3 532 -7T442 -12Q357 -12 289 14T172 87T99 198T73 339Q73 409 101 472T180 583T300 658T451 686Q500 686 541 681T616 667Q638 662 661 656T711 644Q708 616 704 585T695 523L678 526Q680 586 625 621T447 656Q384 656 331 637T240 579T180 482T158 347Q158 278 179 218T239 113T333 43T455 17Q503 17 546 25T621 47L623 229Q623 255 610 265T569 276L570 292Q577 292 588 292T611 290T637 288T661 287Q673 287 686 288T713 290T738 291T758 291Z"  />
<glyph unicode="h" horiz-adv-x="756" d="M702 17L700 -1Q693 -3 681 -3T653 -1T621 2T586 4Q569 4 552 3T519 0T492 -2T472 -1L470 17Q498 13 521 25T545 69L546 320H210L211 69Q212 37 235 25T286 17L284 -1Q277 -3 265 -3T237 -1T205 2T170 4Q153 4 136 3T103 0T76 -2T56 -1L55 17Q83 13 106 25T129 69L132 608Q132 637 118 649T82 661L83 676Q97 680 119 676T170 671Q200 671 222 675T258 676L259 661Q236 661 222 649T208 608L210 355H546L548 608Q548 637 534 649T497 661L498 676Q512 680 534 676T586 671Q615 671 637 675T673 676L674 661Q652 661 638 649T624 608L627 69Q627 37 650 25T702 17Z"  />
<glyph unicode="i" horiz-adv-x="341" d="M286 17L284 -1Q277 -3 265 -3T237 -1T205 2T170 4Q153 4 136 3T103 0T76 -2T56 -1L55 17Q83 13 106 25T129 69L132 608Q132 637 118 649T82 661L83 676Q97 680 119 676T170 671Q200 671 222 675T258 676L259 661Q236 661 222 649T208 608L211 69Q212 37 235 25T286 17Z"  />
<glyph unicode="j" horiz-adv-x="315" d="M260 661Q238 661 224 649T210 608L212 82Q212 54 205 31T180 -13T135 -58T68 -112L55 -98Q91 -66 111 -34T131 48L133 608Q133 637 120 649T83 661L84 676Q98 680 120 676T172 671Q201 671 223 675T260 676V661Z"  />
<glyph unicode="k" horiz-adv-x="610" d="M622 16L621 -1Q611 -4 588 -3T535 1T473 3T415 -1L412 14Q431 16 441 26T437 55L210 346L211 69Q212 37 235 25T286 17L284 -1Q277 -3 265 -3T237 -1T205 2T170 4Q153 4 136 3T103 0T76 -2T56 -1L55 17Q83 13 106 25T129 69L132 608Q132 637 118 649T82 661L83 676Q97 680 119 676T170 671Q200 671 222 675T258 676L259 661Q236 661 222 649T208 608L210 363L418 622Q431 638 429 648T408 660L411 676Q441 670 465 670T509 673T542 676T567 675L568 659Q540 661 513 652T469 622L278 387L515 80Q542 45 567 31T622 16Z"  />
<glyph unicode="l" horiz-adv-x="484" d="M463 100Q463 91 462 78T460 50T456 23T453 -1L56 0L55 17Q68 16 81 18T105 26T122 42T129 70L133 608Q133 637 119 649T82 661L83 676Q98 678 122 675T176 671Q205 671 231 674T272 676L273 661Q247 660 228 649T208 608L212 93Q212 63 226 50T268 36H377Q416 36 430 53T447 102L463 100Z"  />
<glyph unicode="m" horiz-adv-x="893" d="M857 14L856 -2Q846 -5 826 -3T779 1T722 3T660 -2L656 14Q701 19 698 58L667 524L443 6Q431 -18 420 7L203 523L160 58Q157 19 202 14L199 -2Q168 4 143 4T98 1T63 -3T38 -2L37 14Q68 12 91 25T117 71L165 586Q168 622 153 638T87 658V675Q94 678 108 676T141 672T181 670T226 675Q229 657 237 636T254 593Q262 574 274 544T302 478T335 402T369 323Q408 231 451 127Q503 248 545 347Q563 389 580 430T612 505T637 562T650 592Q661 615 667 636T677 675Q699 670 720 670T760 672T793 676T816 675V658Q790 656 775 651T751 638T740 616T740 585L777 71Q779 38 802 25T857 14Z"  />
<glyph unicode="n" horiz-adv-x="768" d="M715 659Q693 660 676 653T659 621V5Q658 -6 653 -6T640 2L176 560L178 52Q178 28 195 21T234 15L233 -2Q219 -5 193 -2T146 1Q126 1 103 -1T61 -2V15Q74 15 86 16T108 22T123 36T129 59Q129 197 130 309Q130 357 130 403T130 488T131 553T131 586Q131 622 115 638T52 658L53 675Q60 678 75 677T110 674T153 672T199 676Q202 662 210 649T228 622Q232 617 250 595T297 538T359 463T428 378Q510 278 612 154L610 621Q610 646 594 653T554 659L555 675Q569 678 591 676T634 673Q654 673 677 675T714 675L715 659Z"  />
<glyph unicode="o" horiz-adv-x="880" d="M722 329Q722 389 700 448T637 553T541 627T421 656Q359 656 310 634T228 570T176 472T158 343Q158 282 180 224T243 121T339 47T459 19Q521 19 570 40T652 102T704 200T722 329ZM807 341Q807 253 774 187T687 77T569 10T439 -13Q370 -13 304 9T187 76T104 184T73 333Q73 421 106 487T192 597T310 664T439 687Q509 687 575 665T693 598T776 490T807 341Z"  />
<glyph unicode="p" horiz-adv-x="562" d="M522 499Q522 445 498 399T433 324T337 289T220 307L228 325Q290 305 332 312T401 343T439 403T451 478Q451 518 438 551T400 607T342 644T270 657Q254 657 236 654T208 649L211 97Q211 70 217 53T234 27T258 16T286 15L284 0Q277 -2 265 -2T237 0T205 3T170 5Q153 5 136 4T103 1T76 -1T56 0L55 15Q83 12 106 23T129 68L132 606Q132 635 118 647T82 659L83 674Q97 678 119 675T170 671Q200 671 233 675T311 679Q365 679 404 664T470 624T509 567T522 499Z"  />
<glyph unicode="q" horiz-adv-x="868" d="M703 329Q703 389 681 447T620 552T528 626T411 655Q351 655 304 633T224 570T174 472T156 343Q156 282 178 224T239 121T331 47T447 19Q507 19 554 40T635 102T685 200T703 329ZM1380 -158Q1345 -179 1294 -191T1179 -203T1045 -191T901 -149Q814 -114 725 -72T554 8Q524 -3 491 -8T429 -13Q361 -13 297 9T184 76T104 184T73 333Q73 421 105 487T189 597T304 664T429 687Q497 687 561 665T675 598T755 490T786 341Q786 290 774 245T739 162T688 94T626 43Q729 -5 821 -46T1001 -117Q1064 -139 1115 -153T1211 -171T1295 -170T1371 -144L1380 -158Z"  />
<glyph unicode="r" horiz-adv-x="640" d="M434 475Q434 513 423 546T389 604T337 643T269 657Q254 657 236 654T208 649L210 315Q274 301 317 309T386 340T423 398T434 475ZM662 -2Q638 -6 614 -6T567 -2T522 17T481 57Q440 109 403 164T320 286Q294 281 267 281T210 288L211 97Q211 70 217 54T234 28T258 17T286 16L284 -1Q277 -3 265 -3T237 -1T205 2T170 4Q153 4 136 3T103 0T76 -2T56 -1L55 16Q83 12 106 24T129 68L132 607Q132 636 118 648T82 659V675Q98 677 119 675T170 673Q199 673 232 677T311 681Q364 681 401 666T462 627T496 572T507 509Q507 486 500 460T479 407T443 357T391 315Q409 288 430 257T474 195T519 135T560 81Q589 45 611 28T660 13L662 -2Z"  />
<glyph unicode="s" horiz-adv-x="476" d="M429 177Q429 124 409 88T358 30T286 -2T206 -12Q162 -12 125 -3T55 18Q55 31 56 49T59 87T63 122T68 148L85 144Q81 118 85 95T106 53T150 25T220 14Q246 14 273 20T321 39T357 75T371 129Q371 171 350 202T298 261T231 313T163 369T111 436T90 524Q90 561 103 591T142 643T200 675T275 687Q324 687 363 675T419 655Q419 647 418 635T414 609T410 581T405 553L391 556Q391 585 381 605T353 638T314 656T270 662Q211 662 178 635T144 557Q144 518 165 487T218 428T286 374T355 319T408 256T429 177Z"  />
<glyph unicode="t" horiz-adv-x="560" d="M559 703Q560 695 556 678T548 645Q546 631 545 610T540 576L525 577Q529 600 521 619T487 639H322L325 68Q325 36 348 24T399 16L397 0Q390 -2 378 -2T351 0T319 3T284 5Q267 5 250 4T217 1T190 -1T170 0L168 16Q196 12 219 24T242 68L245 639H73Q47 639 34 620T15 577L0 579Q0 585 2 594T6 613T10 634T12 650Q14 667 14 681T15 703L29 704Q31 690 36 682T56 674H507Q542 674 545 704L559 703Z"  />
<glyph unicode="u" horiz-adv-x="726" d="M671 658Q649 659 636 652T622 621V199Q622 160 608 122T565 54T493 6T394 -13Q322 -13 272 0T190 39T146 106T132 201L134 608Q134 637 120 649T84 660L85 676Q99 680 121 676T172 671Q202 671 224 675T260 676L261 660Q238 661 224 649T211 608L213 214Q214 112 262 65T407 18Q440 18 471 29T526 63T565 119T580 196L579 621Q579 645 565 652T529 658L530 674Q544 677 562 675T600 672Q620 672 638 674T671 674V658Z"  />
<glyph unicode="v" horiz-adv-x="677" d="M681 660Q670 661 658 660T633 654T610 637T590 604L350 -4Q340 -28 330 -4L85 605Q76 626 66 637T43 654T19 660T-4 660L-3 676Q7 679 27 677T74 673T130 671T193 676L196 661Q153 657 169 617L360 131L549 617Q565 657 522 661L525 676Q556 670 580 670T623 673T655 677T680 676L681 660Z"  />
<glyph unicode="w" horiz-adv-x="938" d="M942 659Q931 660 919 660T894 654T871 637T852 604L612 -4Q607 -17 603 -17T593 -4L470 303L348 -4Q340 -28 330 -4L85 604Q77 625 66 636T44 653T20 659T-4 659L-3 675Q7 678 27 676T73 672T129 670T190 676L193 660Q171 658 165 647T166 617L357 129L448 358L349 604Q340 625 330 636T307 653T283 659T259 659L260 675Q270 678 290 676T336 672T392 670T453 676L457 660Q434 658 428 647T429 617L489 464L549 617Q556 635 550 646T522 660L525 676Q556 670 580 670T622 672T653 676T678 675L679 659Q668 660 656 660T631 654T608 637T588 604L511 408L621 129L812 617Q820 635 814 646T785 660L788 676Q819 670 843 670T885 672T917 676T941 675L942 659Z"  />
<glyph unicode="x" horiz-adv-x="597" d="M615 16L614 -1Q604 -4 584 -2T536 1T478 3T416 -2L413 14Q429 18 436 29T434 57L288 292L141 57Q120 24 160 14L156 -2Q127 3 103 3T58 1T23 -2T-3 -1L-4 16Q7 15 19 15T45 20T72 35T97 64L266 329L96 606Q73 644 53 653T10 660L11 675Q21 678 39 676T82 673T135 671T195 676L198 661Q182 657 175 646T178 618L312 403L447 618Q467 652 428 661L432 676Q460 671 483 671T524 673T556 676T580 675L581 660Q559 662 535 654T493 617L334 366L516 69Q529 48 542 37T567 20T592 15T615 16Z"  />
<glyph unicode="y" horiz-adv-x="562" d="M566 659Q555 660 544 659T522 653T499 637T477 605L325 329L327 68Q327 36 350 24T401 15L400 0Q393 -2 381 -2T353 0T321 3T286 5Q269 5 252 4T219 1T192 -1T172 0L170 15Q198 12 221 24T244 68L246 305L83 606Q72 625 62 636T40 653T18 659T-4 659L-3 675Q7 678 26 676T69 672T123 670T183 675L186 661Q170 657 163 647T167 618L300 368L438 618Q457 652 419 661L422 675Q451 670 473 670T512 673T542 676T565 675L566 659Z"  />
<glyph unicode="z" horiz-adv-x="608" d="M582 664L139 41L500 40Q533 40 547 55T563 102L579 100Q579 91 578 78T576 51T572 24T569 0H34Q17 0 25 13L468 636H129Q74 636 74 588H59Q59 606 61 631T66 674H575Q583 674 585 672T582 664Z"  />
<glyph unicode="{" horiz-adv-x="333" d="M291 -80Q252 -80 223 -73T175 -50T146 -6T136 63V156Q136 219 134 257T124 318T98 351T49 369V384Q80 391 97 401T123 434T134 495T136 597V690Q136 731 145 758T174 802T223 826T291 833V817Q268 817 252 812T226 793T210 755T205 691V596Q205 541 202 505T190 444T163 405T115 378Q145 366 163 351T190 312T202 250T205 157V62Q205 23 210 -1T225 -39T252 -58T291 -63V-80Z"  />
<glyph unicode="|" horiz-adv-x="253" d="M150 -78H105V808H150V-78Z"  />
<glyph unicode="}" horiz-adv-x="333" d="M291 369Q260 362 243 352T217 319T206 258T204 156V63Q204 22 195 -5T166 -49T117 -73T49 -80V-63Q72 -63 88 -58T115 -39T130 -1T135 62V157Q135 213 138 250T150 311T177 351T225 378Q195 390 177 405T150 444T138 504T135 596V691Q135 730 131 754T116 793T89 812T49 817V833Q88 833 117 826T165 803T194 759T204 690V597Q204 534 206 496T216 435T242 402T291 384V369Z"  />
<glyph unicode="~" horiz-adv-x="541" d="M478 479Q461 461 446 445Q433 431 420 417T399 395Q377 372 358 364T322 358T289 371T261 397Q233 429 212 435T167 428Q159 423 147 415T122 398Q108 388 93 378L74 400Q89 416 103 430Q115 442 128 455T151 477Q170 496 187 503T221 509T253 496T284 471Q313 442 333 434T374 439Q381 444 395 453T423 474Q440 486 458 500L478 479Z"  />
<glyph unicode="&#xA0;" horiz-adv-x="329" />
<glyph unicode="&#xA1;" horiz-adv-x="289" d="M187 65Q188 38 188 23T183 0T169 -10T143 -12Q127 -12 118 -10T105 0T101 23T101 65Q104 114 107 172T113 297T120 434T128 580H160Q164 506 167 435T174 297T181 173T187 65ZM188 738Q188 720 175 707T144 694Q126 694 114 707T101 738Q101 756 113 768T144 781Q162 781 175 769T188 738Z"  />
<glyph unicode="&#xA2;" horiz-adv-x="526" d="M282 549Q249 545 222 530T176 489T147 425T137 340Q138 299 148 263T178 198T223 150T282 125V549ZM467 227Q466 201 463 172T458 123Q419 111 388 105T316 96V13H282V96Q235 99 197 118T131 168T89 242T73 334Q72 380 87 422T130 496T197 550T282 576V659L316 658V577Q342 577 363 574T402 566Q416 562 430 559T465 551Q463 527 461 505T456 456L439 458Q440 496 411 522T316 550V122Q384 124 414 151T450 228L467 227Z"  />
<glyph unicode="&#xA3;" horiz-adv-x="464" d="M453 65Q447 54 437 39T410 10T370 -10T315 -11Q264 -2 227 3T161 9T105 9T50 1L43 30Q82 44 105 67T139 121T152 188T151 262H44L45 296H148Q146 322 144 348T140 401Q137 459 152 502T192 574T251 617T318 631Q352 631 385 622T437 599Q435 573 431 550T420 504L407 507Q408 528 400 545T377 575T343 594T305 601Q258 601 233 565T212 447Q215 402 217 365T219 296H373V262H219Q218 217 212 185T195 129T167 86T124 50L125 46Q158 54 185 56T237 58T286 53T339 43Q369 37 399 44T442 73L453 65Z"  />
<glyph unicode="&#xA4;" horiz-adv-x="0" />
<glyph unicode="&#xA5;" horiz-adv-x="586" d="M593 605L590 589Q550 594 530 581T491 545Q464 514 428 453T348 300H492V266H340V201H492V166H340L341 62Q341 33 362 24T409 17L408 -1Q394 -4 365 0T303 4Q271 4 242 0T199 -1L197 17Q210 15 222 16T244 23T260 38T266 62V166H102V201H266V266H102V300L250 299Q232 334 215 363T181 419T149 468T117 515Q104 534 93 548T68 571T40 583T3 584L1 600Q46 612 75 613T122 608T153 589T175 561Q204 517 238 456T313 313Q357 426 395 496T463 587Q484 602 515 609T593 605Z"  />
<glyph unicode="&#xA6;" horiz-adv-x="253" d="M150 402H105V808H150V402ZM150 340V-78H105V340H150Z"  />
<glyph unicode="&#xA7;" horiz-adv-x="476" d="M366 313Q366 336 347 353T298 384T234 411T168 440Q148 426 137 412T126 368Q126 345 143 330T190 301T256 274T333 241Q366 268 366 313ZM412 145Q412 112 399 84T362 34T300 1T215 -11Q195 -11 173 -8T130 -1T89 9T54 19Q54 32 55 48T59 81T64 113T69 137L86 133Q82 111 85 90T103 51T145 24T214 13Q290 13 322 41T355 114Q355 140 335 157T283 187T216 212T148 239T97 276T76 331Q76 357 83 376T102 409T127 432T153 449Q124 466 106 488T87 543Q87 612 133 649T267 686Q303 686 336 676T396 655Q396 643 395 626T391 593T387 561T382 537L367 541Q371 563 368 584T353 623T319 650T261 661Q142 661 142 573Q142 547 162 530T212 499T276 473T341 444T391 404T411 346Q411 320 404 302T386 270T366 247T348 233Q376 217 394 196T412 145Z"  />
<glyph unicode="&#xA8;" horiz-adv-x="382" d="M158 701Q158 687 149 677T125 667Q111 667 101 677T91 701Q91 715 101 724T125 734Q139 734 148 725T158 701ZM305 701Q305 687 295 677T271 667Q257 667 247 677T237 701Q237 715 247 724T271 734Q285 734 295 725T305 701Z"  />
<glyph unicode="&#xA9;" horiz-adv-x="851" d="M590 525Q588 504 586 484T580 440L559 444Q561 479 533 500T437 521Q370 521 327 477T283 342Q283 301 294 267T327 206T377 166T442 151Q506 151 532 172T565 238L587 236Q585 213 582 187T576 143Q537 132 506 127T434 121Q386 121 347 137T281 182T239 250T224 337Q224 380 240 419T285 487T353 534T439 551Q467 551 490 548T532 539Q544 536 557 532T590 525ZM735 338Q735 402 711 458T644 557T546 623T425 648Q361 648 305 624T206 557T140 459T116 338Q116 274 140 218T206 119T304 53T425 28Q489 28 545 52T644 119T710 217T735 338ZM774 338Q774 266 747 202T672 91T561 17T425 -11Q353 -11 290 16T179 91T105 202T77 338Q77 410 104 473T179 584T289 658T425 686Q497 686 561 659T672 584T746 474T774 338Z"  />
<glyph unicode="&#xAA;" horiz-adv-x="422" d="M244 557L202 663L161 557H244ZM384 400Q373 397 363 398T341 400Q328 402 313 402T279 398L275 416Q289 418 292 422T293 432L255 529H150L112 432Q110 426 113 422T130 416L126 398Q107 401 95 401T74 400Q64 399 57 399T40 400L39 418Q54 416 64 419T82 442L202 745Q206 754 212 755T223 745L345 442Q353 422 362 419T385 418L384 400Z"  />
<glyph unicode="&#xAB;" horiz-adv-x="419" d="M207 211L188 197Q161 221 136 243Q115 262 94 280T62 310Q53 318 51 324T49 344Q49 358 51 364T62 379Q73 389 94 407T136 445Q161 467 188 491L207 477L116 344L207 211ZM364 211L345 197Q319 221 294 243Q273 262 252 280T219 310Q211 318 209 324T206 344Q206 358 208 364T219 379Q230 389 251 407T294 445Q319 467 345 491L364 477L273 344L364 211Z"  />
<glyph unicode="&#xAC;" horiz-adv-x="0" />
<glyph unicode="&#xAD;" horiz-adv-x="341" d="M294 340L278 298H48L65 340H294Z"  />
<glyph unicode="&#xAE;" horiz-adv-x="640" d="M434 475Q434 513 423 546T389 604T337 643T269 657Q254 657 236 654T208 649L210 315Q274 301 317 309T386 340T423 398T434 475ZM619 -1Q594 -5 570 -5T525 -1T484 18T447 57Q413 108 382 163T313 284Q287 280 261 281T210 288L211 97Q211 70 217 54T234 28T258 17T286 16L284 -1Q277 -3 265 -3T237 -1T205 2T170 4Q153 4 136 3T103 0T76 -2T56 -1L55 16Q83 12 106 24T129 68L132 607Q132 636 118 648T82 659V675Q98 677 119 675T170 673Q199 673 232 677T311 681Q364 681 401 666T462 627T496 572T507 509Q507 486 501 459T482 404T445 353T388 310Q403 283 420 253T456 193T492 134T527 82Q552 46 571 29T619 15V-1Z"  />
<glyph unicode="&#xAF;" horiz-adv-x="382" d="M309 719V677H77V719H309Z"  />
<glyph unicode="&#xB0;" horiz-adv-x="361" d="M253 560Q253 590 232 611T181 632Q150 632 129 611T108 560Q108 530 129 509T181 487Q211 487 232 508T253 560ZM292 560Q292 537 283 517T259 481T224 457T181 448Q158 448 138 457T102 481T78 516T69 560Q69 583 78 603T102 638T137 662T181 671Q204 671 224 662T259 638T283 603T292 560Z"  />
<glyph unicode="&#xB1;" horiz-adv-x="0" />
<glyph unicode="&#xB2;" horiz-adv-x="465" d="M383 302L379 277Q375 252 373 232T370 189H58L57 200Q74 229 98 255T149 310Q175 338 202 368T252 429T288 493T302 559Q302 607 280 634T209 662Q167 662 139 642T105 576L84 575Q84 580 84 586T85 597Q87 615 87 632T86 671L112 676Q132 681 158 686T220 691Q292 691 333 661T375 570Q375 536 361 504T324 440T274 381T221 327Q195 302 172 279T133 235H285Q304 235 316 237T337 246T351 266T361 303L383 302Z"  />
<glyph unicode="&#xB3;" horiz-adv-x="463" d="M391 335Q391 300 377 272T338 224T279 194T204 183Q161 183 129 189T76 200L61 204Q62 212 62 220T62 236Q62 245 62 253T61 269Q61 274 61 281T60 293H81Q84 268 94 253T121 228T160 216T207 213Q261 213 290 242T320 321Q320 378 285 413T170 448Q159 448 150 448T131 446V478Q165 476 193 481T242 499T274 533T286 585Q286 619 267 644T207 669Q107 669 97 586H78Q78 593 78 601T79 617Q80 631 80 645T78 676L94 680Q114 685 145 691T219 697Q292 697 325 666T358 590Q358 569 350 551T327 518T295 490T255 469Q283 463 308 452T351 424T380 385T391 335Z"  />
<glyph unicode="&#xB4;" horiz-adv-x="382" d="M258 713L116 645L109 655L221 765Q229 773 237 771T257 752Q269 735 268 727T258 713Z"  />
<glyph unicode="&#xB5;" horiz-adv-x="0" />
<glyph unicode="&#xB6;" horiz-adv-x="539" d="M313 649Q305 649 295 649T271 650Q235 650 208 638T163 604T136 554T127 493Q127 462 139 436T175 392T233 367T311 365Q311 385 311 410T312 470T312 548T313 649ZM496 -4Q484 -7 453 -4T389 2V648H353V2Q336 1 318 0T284 -3T255 -5T236 -4L235 12Q249 10 262 12T287 24T305 50T312 94Q312 149 312 184T312 246T311 294T311 341Q252 330 203 337T119 366T65 423T46 503Q46 533 60 563T102 618T167 659T255 675Q296 675 326 673T385 671Q414 671 443 673T490 674L491 659Q461 660 445 647T429 601Q429 593 429 567T429 504T428 421T428 330V89Q428 63 433 48T448 24T470 14T498 12L496 -4Z"  />
<glyph unicode="&#xB7;" horiz-adv-x="199" d="M145 367Q145 349 133 336T102 323Q84 323 71 336T58 367Q58 385 71 397T102 410Q120 410 132 398T145 367Z"  />
<glyph unicode="&#xB8;" horiz-adv-x="384" d="M265 -137Q259 -156 243 -165T204 -177T156 -178T108 -169L114 -151Q130 -156 146 -156T177 -154T201 -145T215 -130Q221 -112 205 -96T142 -75L177 -3L204 -6L178 -61Q199 -64 217 -69T247 -84T265 -106T265 -137Z"  />
<glyph unicode="&#xB9;" horiz-adv-x="342" d="M292 195Q278 193 260 193T224 196Q213 197 201 197T179 198Q167 198 156 198T133 196Q116 194 98 194T65 195L63 216Q98 213 119 220T140 250L142 610Q143 630 137 639T108 649Q99 649 85 648T50 641L44 663Q86 670 132 680T213 701L222 694Q217 681 216 668T214 637L216 250Q216 228 237 221T293 216L292 195Z"  />
<glyph unicode="&#xBA;" horiz-adv-x="483" d="M378 567Q378 597 367 625T337 676T291 712T233 726Q173 726 140 685T106 574Q106 545 117 517T147 467T193 432T251 418Q311 418 344 458T378 567ZM431 573Q431 528 414 494T369 437T309 403T242 391Q206 391 173 402T113 437T70 493T54 570Q54 615 71 649T115 706T175 740T242 752Q278 752 312 741T372 706T415 650T431 573Z"  />
<glyph unicode="&#xBB;" horiz-adv-x="419" d="M207 344Q207 331 205 325T193 310Q182 299 161 281T119 243Q94 221 68 197L49 211L139 344L49 477L68 491Q94 467 119 445Q139 426 160 408T193 379Q202 371 204 365T207 344ZM364 344Q364 331 362 325T351 310Q339 299 318 281T276 243Q251 221 225 197L206 211L297 344L206 477L225 491Q251 467 276 445Q297 426 318 408T351 379Q359 371 361 365T364 344Z"  />
<glyph unicode="&#xBC;" horiz-adv-x="1036" d="M822 442Q797 416 768 380T711 304T659 228T621 163H822V442ZM973 164L957 113H889V53Q889 32 910 25T966 19V-1Q952 -3 935 -3T904 -1Q893 0 880 1T856 2Q843 2 832 1T808 -1Q792 -3 776 -3T745 -2L744 19Q779 17 800 24T821 53V113H617Q600 113 579 113T539 109Q560 151 594 203T668 308T749 409T828 493L884 503L895 501Q890 490 890 478T889 455V163H921Q930 163 943 165T968 172L973 164ZM724 808L298 -78H253L679 808H724ZM289 195Q275 193 257 193T221 196Q210 197 198 197T176 198Q164 198 153 198T130 196Q113 194 95 194T62 195L60 216Q95 213 116 220T137 250L139 610Q140 630 134 639T105 649Q96 649 82 648T47 641L41 663Q83 670 129 680T210 701L219 694Q214 681 213 668T211 637L213 250Q213 228 234 221T290 216L289 195Z"  />
<glyph unicode="&#xBD;" horiz-adv-x="1043" d="M724 808L298 -78H253L679 808H724ZM289 195Q275 193 257 193T221 196Q210 197 198 197T176 198Q164 198 153 198T130 196Q113 194 95 194T62 195L60 216Q95 213 116 220T137 250L139 610Q140 630 134 639T105 649Q96 649 82 648T47 641L41 663Q83 670 129 680T210 701L219 694Q214 681 213 668T211 637L213 250Q213 228 234 221T290 216L289 195ZM967 113L963 88Q959 63 957 43T954 0H642L641 11Q658 40 682 66T733 121Q759 149 786 179T836 240T872 304T886 370Q886 418 864 445T793 473Q751 473 723 453T689 387L668 386Q668 391 668 397T669 408Q671 426 671 443T670 482L696 487Q716 492 742 497T804 502Q876 502 917 472T959 381Q959 347 945 315T908 251T858 192T805 138Q779 113 756 90T717 46H869Q888 46 900 48T921 57T935 77T945 114L967 113Z"  />
<glyph unicode="&#xBE;" horiz-adv-x="1110" d="M391 335Q391 300 377 272T338 224T279 194T204 183Q161 183 129 189T76 200L61 204Q62 212 62 220T62 236Q62 245 62 253T61 269Q61 274 61 281T60 293H81Q84 268 94 253T121 228T160 216T207 213Q261 213 290 242T320 321Q320 378 285 413T170 448Q159 448 150 448T131 446V478Q165 476 193 481T242 499T274 533T286 585Q286 619 267 644T207 669Q107 669 97 586H78Q78 593 78 601T79 617Q80 631 80 645T78 676L94 680Q114 685 145 691T219 697Q292 697 325 666T358 590Q358 569 350 551T327 518T295 490T255 469Q283 463 308 452T351 424T380 385T391 335ZM908 442Q883 416 854 380T797 304T745 228T707 163H908V442ZM1059 164L1043 113H975V53Q975 32 996 25T1052 19V-1Q1038 -3 1021 -3T990 -1Q979 0 966 1T942 2Q929 2 918 1T894 -1Q878 -3 862 -3T831 -2L830 19Q865 17 886 24T907 53V113H703Q686 113 665 113T625 109Q646 151 680 203T754 308T835 409T914 493L970 503L981 501Q976 490 976 478T975 455V163H1007Q1016 163 1029 165T1054 172L1059 164ZM810 808L384 -78H339L765 808H810Z"  />
<glyph unicode="&#xBF;" horiz-adv-x="417" d="M372 25Q363 21 348 15T314 2T271 -8T224 -12Q185 -12 153 0T96 33T59 83T46 147Q46 182 62 213T104 272T159 326T213 378T255 430T272 486Q272 517 254 534T204 552V581Q258 581 293 551T329 467Q329 427 313 395T272 334T219 281T166 231T126 178T109 119Q109 77 139 50T221 22Q243 22 264 28T303 47T331 84T342 140L358 143Q361 129 363 112T367 79T370 48T372 25ZM291 734Q291 716 279 703T248 690Q230 690 217 703T204 734Q204 752 217 764T248 777Q266 777 278 765T291 734Z"  />
<glyph unicode="&#xC0;" horiz-adv-x="678" d="M419 836L412 827L270 894Q261 899 261 907T272 933Q283 950 291 952T307 946L419 836ZM432 335L329 618L226 335H432ZM702 -1Q691 -4 671 -2T623 2T564 4T499 -2L495 16Q519 18 528 32T530 66L447 294H212L129 66Q121 46 130 32T164 16L160 -2Q127 4 102 4T58 2T24 -2T-2 -1L-3 18Q9 17 21 18T44 25T66 44T86 81L339 769Q344 784 350 785T363 769L620 80Q629 56 638 44T658 25T680 18T703 18L702 -1Z"  />
<glyph unicode="&#xC1;" horiz-adv-x="678" d="M274 822L267 832L379 942Q387 950 395 948T415 929Q427 912 426 904T416 890L274 822ZM432 335L329 618L226 335H432ZM702 -1Q691 -4 671 -2T623 2T564 4T499 -2L495 16Q519 18 528 32T530 66L447 294H212L129 66Q121 46 130 32T164 16L160 -2Q127 4 102 4T58 2T24 -2T-2 -1L-3 18Q9 17 21 18T44 25T66 44T86 81L339 769Q344 784 350 785T363 769L620 80Q629 56 638 44T658 25T680 18T703 18L702 -1Z"  />
<glyph unicode="&#xC2;" horiz-adv-x="678" d="M492 816L486 807L349 878L213 806L205 816L317 926Q324 933 330 935T349 937Q361 937 367 935T381 926L492 816ZM432 335L329 618L226 335H432ZM702 -1Q691 -4 671 -2T623 2T564 4T499 -2L495 16Q519 18 528 32T530 66L447 294H212L129 66Q121 46 130 32T164 16L160 -2Q127 4 102 4T58 2T24 -2T-2 -1L-3 18Q9 17 21 18T44 25T66 44T86 81L339 769Q344 784 350 785T363 769L620 80Q629 56 638 44T658 25T680 18T703 18L702 -1Z"  />
<glyph unicode="&#xC3;" horiz-adv-x="678" d="M508 915Q495 901 484 890Q474 880 465 870T450 854Q434 837 420 831T393 826T369 835T347 852Q324 875 306 877T275 871Q269 867 258 860T235 846Q222 838 207 829L199 839Q213 853 226 865Q237 876 248 886T266 904Q293 932 318 929T364 905Q404 866 435 885Q440 889 451 895T473 909Q485 917 499 926L508 915ZM432 335L329 618L226 335H432ZM702 -1Q691 -4 671 -2T623 2T564 4T499 -2L495 16Q519 18 528 32T530 66L447 294H212L129 66Q121 46 130 32T164 16L160 -2Q127 4 102 4T58 2T24 -2T-2 -1L-3 18Q9 17 21 18T44 25T66 44T86 81L339 769Q344 784 350 785T363 769L620 80Q629 56 638 44T658 25T680 18T703 18L702 -1Z"  />
<glyph unicode="&#xC4;" horiz-adv-x="678" d="M306 864Q306 850 297 840T273 830Q259 830 249 840T239 864Q239 878 249 887T273 897Q287 897 296 888T306 864ZM453 864Q453 850 443 840T419 830Q405 830 395 840T385 864Q385 878 395 887T419 897Q433 897 443 888T453 864ZM432 335L329 618L226 335H432ZM702 -1Q691 -4 671 -2T623 2T564 4T499 -2L495 16Q519 18 528 32T530 66L447 294H212L129 66Q121 46 130 32T164 16L160 -2Q127 4 102 4T58 2T24 -2T-2 -1L-3 18Q9 17 21 18T44 25T66 44T86 81L339 769Q344 784 350 785T363 769L620 80Q629 56 638 44T658 25T680 18T703 18L702 -1Z"  />
<glyph unicode="&#xC5;" horiz-adv-x="678" d="M398 865Q398 885 384 899T350 913Q330 913 316 899T301 865Q301 845 315 831T350 816Q370 816 384 830T398 865ZM424 865Q424 833 403 812T350 790Q318 790 297 811T275 865Q275 896 296 917T350 939Q381 939 402 918T424 865ZM432 335L329 618L226 335H432ZM702 -1Q691 -4 671 -2T623 2T564 4T499 -2L495 16Q519 18 528 32T530 66L447 294H212L129 66Q121 46 130 32T164 16L160 -2Q127 4 102 4T58 2T24 -2T-2 -1L-3 18Q9 17 21 18T44 25T66 44T86 81L339 769Q344 784 350 785T363 769L620 80Q629 56 638 44T658 25T680 18T703 18L702 -1Z"  />
<glyph unicode="&#xC6;" horiz-adv-x="926" d="M521 672L293 335H520L521 672ZM869 114Q870 103 869 89T867 58T863 27T859 -1L442 0L440 19Q454 18 468 20T493 30T511 49T519 80L520 294H265L110 66Q96 46 101 32T129 16L124 -2Q93 4 68 4T22 2T-13 -2T-38 -1L-37 18Q-24 17 -12 17T14 24T41 43T72 81L515 728Q505 741 488 744T451 747L452 766H842Q842 745 842 715T839 665L824 667Q826 693 813 710T772 727H602L604 425H789Q825 425 825 460L842 459Q844 450 842 432T839 397Q839 381 840 361T840 326L821 325Q823 358 814 372T776 386H604L606 106Q606 41 665 41H779Q820 41 835 61T853 116L869 114Z"  />
<glyph unicode="&#xC7;" horiz-adv-x="816" d="M759 732Q756 700 752 665T742 594L724 597Q727 666 669 706T481 746Q415 746 359 724T263 658T200 548T177 394Q177 316 199 248T263 129T361 49T490 20Q552 20 596 30T668 60T712 112T734 184L753 182Q752 164 750 143T745 101T740 60T735 26Q703 17 673 10T613 -3Q582 -9 548 -11T476 -14Q467 -14 458 -14T441 -13L417 -61Q438 -64 456 -69T487 -84T505 -106T505 -137Q499 -156 483 -165T444 -177T396 -178T347 -169L353 -151Q369 -156 385 -156T416 -154T440 -145T454 -130Q460 -112 444 -96T381 -75L413 -10Q338 0 278 33T175 118T111 238T88 385Q88 465 118 536T201 662T327 747T485 779Q537 779 580 773T659 758Q682 752 706 745T759 732Z"  />
<glyph unicode="&#xC8;" horiz-adv-x="543" d="M347 829L340 820L198 887Q189 892 189 900T200 926Q211 943 219 945T235 939L347 829ZM497 114Q498 103 497 89T495 58T491 27T487 -1L70 0L68 19Q82 18 96 20T121 30T139 49T147 80L150 688Q150 721 133 734T93 747L94 766H470Q470 745 470 715T467 665L452 667Q454 693 441 710T400 727H230L232 425H417Q453 425 454 460L470 459Q472 450 470 432T467 397Q467 381 468 361T468 326L449 325Q451 358 442 372T404 386H232L234 106Q234 41 293 41H407Q448 41 463 61T481 116L497 114Z"  />
<glyph unicode="&#xC9;" horiz-adv-x="543" d="M243 819L236 829L348 939Q356 947 364 945T384 926Q396 909 395 901T385 887L243 819ZM497 114Q498 103 497 89T495 58T491 27T487 -1L70 0L68 19Q82 18 96 20T121 30T139 49T147 80L150 688Q150 721 133 734T93 747L94 766H470Q470 745 470 715T467 665L452 667Q454 693 441 710T400 727H230L232 425H417Q453 425 454 460L470 459Q472 450 470 432T467 397Q467 381 468 361T468 326L449 325Q451 358 442 372T404 386H232L234 106Q234 41 293 41H407Q448 41 463 61T481 116L497 114Z"  />
<glyph unicode="&#xCA;" horiz-adv-x="543" d="M437 829L431 820L294 891L158 819L150 829L262 939Q269 946 275 948T294 950Q306 950 312 948T326 939L437 829ZM497 114Q498 103 497 89T495 58T491 27T487 -1L70 0L68 19Q82 18 96 20T121 30T139 49T147 80L150 688Q150 721 133 734T93 747L94 766H470Q470 745 470 715T467 665L452 667Q454 693 441 710T400 727H230L232 425H417Q453 425 454 460L470 459Q472 450 470 432T467 397Q467 381 468 361T468 326L449 325Q451 358 442 372T404 386H232L234 106Q234 41 293 41H407Q448 41 463 61T481 116L497 114Z"  />
<glyph unicode="&#xCB;" horiz-adv-x="543" d="M257 861Q257 847 248 837T224 827Q210 827 200 837T190 861Q190 875 200 884T224 894Q238 894 247 885T257 861ZM404 861Q404 847 394 837T370 827Q356 827 346 837T336 861Q336 875 346 884T370 894Q384 894 394 885T404 861ZM497 114Q498 103 497 89T495 58T491 27T487 -1L70 0L68 19Q82 18 96 20T121 30T139 49T147 80L150 688Q150 721 133 734T93 747L94 766H470Q470 745 470 715T467 665L452 667Q454 693 441 710T400 727H230L232 425H417Q453 425 454 460L470 459Q472 450 470 432T467 397Q467 381 468 361T468 326L449 325Q451 358 442 372T404 386H232L234 106Q234 41 293 41H407Q448 41 463 61T481 116L497 114Z"  />
<glyph unicode="&#xCC;" horiz-adv-x="357" d="M271 833L264 824L122 891Q113 896 113 904T124 930Q135 947 143 949T159 943L271 833ZM310 -1Q302 -3 290 -3T261 -1T226 3T190 5Q172 5 154 3T119 0T90 -2T70 -1L68 19Q83 17 97 19T122 28T139 47T146 79L149 691Q149 724 134 738T96 751L97 768Q112 772 135 768T190 763Q221 763 244 767T282 768L283 751Q260 752 245 738T230 691L233 79Q233 60 239 48T257 28T282 19T311 19L310 -1Z"  />
<glyph unicode="&#xCD;" horiz-adv-x="357" d="M130 822L123 832L235 942Q243 950 251 948T271 929Q283 912 282 904T272 890L130 822ZM310 -1Q302 -3 290 -3T261 -1T226 3T190 5Q172 5 154 3T119 0T90 -2T70 -1L68 19Q83 17 97 19T122 28T139 47T146 79L149 691Q149 724 134 738T96 751L97 768Q112 772 135 768T190 763Q221 763 244 767T282 768L283 751Q260 752 245 738T230 691L233 79Q233 60 239 48T257 28T282 19T311 19L310 -1Z"  />
<glyph unicode="&#xCE;" horiz-adv-x="357" d="M330 830L324 821L187 892L51 820L43 830L155 940Q162 947 168 949T187 951Q199 951 205 949T219 940L330 830ZM310 -1Q302 -3 290 -3T261 -1T226 3T190 5Q172 5 154 3T119 0T90 -2T70 -1L68 19Q83 17 97 19T122 28T139 47T146 79L149 691Q149 724 134 738T96 751L97 768Q112 772 135 768T190 763Q221 763 244 767T282 768L283 751Q260 752 245 738T230 691L233 79Q233 60 239 48T257 28T282 19T311 19L310 -1Z"  />
<glyph unicode="&#xCF;" horiz-adv-x="357" d="M147 855Q147 841 138 831T114 821Q100 821 90 831T80 855Q80 869 90 878T114 888Q128 888 137 879T147 855ZM294 855Q294 841 284 831T260 821Q246 821 236 831T226 855Q226 869 236 878T260 888Q274 888 284 879T294 855ZM310 -1Q302 -3 290 -3T261 -1T226 3T190 5Q172 5 154 3T119 0T90 -2T70 -1L68 19Q83 17 97 19T122 28T139 47T146 79L149 691Q149 724 134 738T96 751L97 768Q112 772 135 768T190 763Q221 763 244 767T282 768L283 751Q260 752 245 738T230 691L233 79Q233 60 239 48T257 28T282 19T311 19L310 -1Z"  />
<glyph unicode="&#xD0;" horiz-adv-x="858" d="M427 404L410 362H214L216 107Q216 64 261 45T400 25Q465 25 519 50T611 122T671 235T692 383Q692 459 672 525T614 639T518 715T388 743Q344 743 295 740T213 728L214 404H427ZM781 389Q781 312 755 241T682 114T568 26T420 -7Q352 -7 290 -2T173 3Q155 3 138 2T105 -1T78 -3T59 -2L57 18Q86 14 107 27T129 78L130 362H-49L-32 404H130L132 689Q132 722 112 735T68 749L69 767Q85 769 115 767T177 764Q196 764 227 765T291 769T357 773T412 775Q501 775 569 745T685 663T756 540T781 389Z"  />
<glyph unicode="&#xD1;" horiz-adv-x="814" d="M575 896Q562 882 551 871Q541 861 532 851T517 835Q501 818 487 812T460 807T436 816T414 833Q391 856 373 858T342 852Q336 848 325 841T302 827Q289 819 274 810L266 820Q280 834 293 846Q304 857 315 867T333 885Q360 913 385 910T431 886Q471 847 502 866Q507 870 518 876T540 890Q552 898 566 907L575 896ZM765 749Q742 750 724 742T706 706L705 6Q705 -7 700 -9T686 -3L158 600L160 59Q160 32 178 24T219 17L218 -2Q203 -6 179 -3T134 1Q114 1 89 -2T50 -2L49 17Q72 16 90 24T108 59L111 760Q111 772 116 774T132 766L657 175L655 706Q654 734 637 742T595 749L596 767Q612 771 635 768T680 765Q701 765 725 768T764 767L765 749Z"  />
<glyph unicode="&#xD2;" horiz-adv-x="926" d="M560 839L553 830L411 897Q402 902 402 910T413 936Q424 953 432 955T448 949L560 839ZM771 373Q771 442 747 508T681 627T580 712T454 745Q389 745 338 720T251 649T196 537T177 390Q177 321 201 255T267 137T367 54T493 22Q558 22 609 46T697 117T752 227T771 373ZM860 387Q860 287 825 212T734 87T609 11T473 -15Q400 -15 331 11T207 87T120 210T87 379Q87 479 122 554T213 679T337 755T473 781Q546 781 616 755T740 679T827 556T860 387Z"  />
<glyph unicode="&#xD3;" horiz-adv-x="926" d="M436 831L429 841L541 951Q549 959 557 957T577 938Q589 921 588 913T578 899L436 831ZM771 373Q771 442 747 508T681 627T580 712T454 745Q389 745 338 720T251 649T196 537T177 390Q177 321 201 255T267 137T367 54T493 22Q558 22 609 46T697 117T752 227T771 373ZM860 387Q860 287 825 212T734 87T609 11T473 -15Q400 -15 331 11T207 87T120 210T87 379Q87 479 122 554T213 679T337 755T473 781Q546 781 616 755T740 679T827 556T860 387Z"  />
<glyph unicode="&#xD4;" horiz-adv-x="926" d="M620 824L614 815L477 886L341 814L333 824L445 934Q452 941 458 943T477 945Q489 945 495 943T509 934L620 824ZM771 373Q771 442 747 508T681 627T580 712T454 745Q389 745 338 720T251 649T196 537T177 390Q177 321 201 255T267 137T367 54T493 22Q558 22 609 46T697 117T752 227T771 373ZM860 387Q860 287 825 212T734 87T609 11T473 -15Q400 -15 331 11T207 87T120 210T87 379Q87 479 122 554T213 679T337 755T473 781Q546 781 616 755T740 679T827 556T860 387Z"  />
<glyph unicode="&#xD5;" horiz-adv-x="926" d="M659 916Q646 902 635 891Q625 881 616 871T601 855Q585 838 571 832T544 827T520 836T498 853Q475 876 457 878T426 872Q420 868 409 861T386 847Q373 839 358 830L350 840Q364 854 377 866Q388 877 399 887T417 905Q444 933 469 930T515 906Q555 867 586 886Q591 890 602 896T624 910Q636 918 650 927L659 916ZM771 373Q771 442 747 508T681 627T580 712T454 745Q389 745 338 720T251 649T196 537T177 390Q177 321 201 255T267 137T367 54T493 22Q558 22 609 46T697 117T752 227T771 373ZM860 387Q860 287 825 212T734 87T609 11T473 -15Q400 -15 331 11T207 87T120 210T87 379Q87 479 122 554T213 679T337 755T473 781Q546 781 616 755T740 679T827 556T860 387Z"  />
<glyph unicode="&#xD6;" horiz-adv-x="926" d="M451 871Q451 857 442 847T418 837Q404 837 394 847T384 871Q384 885 394 894T418 904Q432 904 441 895T451 871ZM598 871Q598 857 588 847T564 837Q550 837 540 847T530 871Q530 885 540 894T564 904Q578 904 588 895T598 871ZM771 373Q771 442 747 508T681 627T580 712T454 745Q389 745 338 720T251 649T196 537T177 390Q177 321 201 255T267 137T367 54T493 22Q558 22 609 46T697 117T752 227T771 373ZM860 387Q860 287 825 212T734 87T609 11T473 -15Q400 -15 331 11T207 87T120 210T87 379Q87 479 122 554T213 679T337 755T473 781Q546 781 616 755T740 679T827 556T860 387Z"  />
<glyph unicode="&#xD7;" horiz-adv-x="427" d="M339 469L381 451L249 319L381 187L339 169L219 289L99 169L57 187L189 319L57 451L99 469L219 349L339 469Z"  />
<glyph unicode="&#xD8;" horiz-adv-x="926" d="M760 373Q760 442 736 508T670 627L280 110Q321 69 372 46T482 22Q547 22 598 46T686 117T741 227T760 373ZM647 654Q606 696 555 720T443 745Q378 745 327 720T240 649T185 537T166 390Q166 321 190 255T257 136L647 654ZM849 387Q849 287 814 212T723 87T598 11T462 -15Q402 -15 345 2T238 53L167 -40L139 -20L210 74Q150 125 113 201T76 379Q76 479 111 554T202 679T326 755T462 781Q523 781 581 764T690 711L756 798L784 778L717 690Q777 639 813 564T849 387Z"  />
<glyph unicode="&#xD9;" horiz-adv-x="763" d="M478 822L471 813L329 880Q320 885 320 893T331 919Q342 936 350 938T366 932L478 822ZM717 748Q694 749 680 741T665 705L666 226Q666 181 651 138T605 61T529 6T425 -15Q349 -15 296 0T211 45T164 120T149 228L152 690Q152 723 137 737T99 750L100 768Q114 772 137 768T192 763Q223 763 246 767T284 768L285 750Q262 751 247 737T232 690L235 243Q236 127 286 74T439 21Q473 21 506 34T564 72T605 135T621 222L620 705Q620 733 605 741T567 748L568 766Q583 770 602 767T642 764Q662 764 682 767T716 766L717 748Z"  />
<glyph unicode="&#xDA;" horiz-adv-x="763" d="M375 815L368 825L480 935Q488 943 496 941T516 922Q528 905 527 897T517 883L375 815ZM717 748Q694 749 680 741T665 705L666 226Q666 181 651 138T605 61T529 6T425 -15Q349 -15 296 0T211 45T164 120T149 228L152 690Q152 723 137 737T99 750L100 768Q114 772 137 768T192 763Q223 763 246 767T284 768L285 750Q262 751 247 737T232 690L235 243Q236 127 286 74T439 21Q473 21 506 34T564 72T605 135T621 222L620 705Q620 733 605 741T567 748L568 766Q583 770 602 767T642 764Q662 764 682 767T716 766L717 748Z"  />
<glyph unicode="&#xDB;" horiz-adv-x="763" d="M564 829L558 820L421 891L285 819L277 829L389 939Q396 946 402 948T421 950Q433 950 439 948T453 939L564 829ZM717 748Q694 749 680 741T665 705L666 226Q666 181 651 138T605 61T529 6T425 -15Q349 -15 296 0T211 45T164 120T149 228L152 690Q152 723 137 737T99 750L100 768Q114 772 137 768T192 763Q223 763 246 767T284 768L285 750Q262 751 247 737T232 690L235 243Q236 127 286 74T439 21Q473 21 506 34T564 72T605 135T621 222L620 705Q620 733 605 741T567 748L568 766Q583 770 602 767T642 764Q662 764 682 767T716 766L717 748Z"  />
<glyph unicode="&#xDC;" horiz-adv-x="763" d="M386 858Q386 844 377 834T353 824Q339 824 329 834T319 858Q319 872 329 881T353 891Q367 891 376 882T386 858ZM533 858Q533 844 523 834T499 824Q485 824 475 834T465 858Q465 872 475 881T499 891Q513 891 523 882T533 858ZM717 748Q694 749 680 741T665 705L666 226Q666 181 651 138T605 61T529 6T425 -15Q349 -15 296 0T211 45T164 120T149 228L152 690Q152 723 137 737T99 750L100 768Q114 772 137 768T192 763Q223 763 246 767T284 768L285 750Q262 751 247 737T232 690L235 243Q236 127 286 74T439 21Q473 21 506 34T564 72T605 135T621 222L620 705Q620 733 605 741T567 748L568 766Q583 770 602 767T642 764Q662 764 682 767T716 766L717 748Z"  />
<glyph unicode="&#xDD;" horiz-adv-x="590" d="M290 844L283 854L395 964Q403 972 411 970T431 951Q443 934 442 926T432 912L290 844ZM595 749Q583 750 572 749T548 742T525 723T501 688L342 374L343 77Q343 59 350 47T368 27T393 18T422 17L420 0Q412 -2 400 -2T371 0T337 4T300 6Q282 6 264 4T230 1T200 -1T180 0L178 17Q193 15 207 17T232 27T250 46T257 77L258 346L87 688Q76 710 65 723T42 742T19 749T-5 749L-4 767Q7 770 27 768T73 764T129 762T192 768L195 751Q179 746 172 735T175 702L316 418L461 702Q480 741 440 751L444 768Q474 762 497 762T538 764T569 768T594 767L595 749Z"  />
<glyph unicode="&#xDE;" horiz-adv-x="562" d="M416 402Q416 435 407 465T380 519T339 555T287 569Q271 569 252 566T219 560L221 252Q323 238 369 278T416 402ZM299 -1Q291 -3 279 -3T250 -1T215 3T179 5Q161 5 143 3T108 0T79 -2T59 -1L57 19Q72 17 86 19T111 28T128 47T135 79L138 691Q138 724 123 738T85 751L86 768Q101 772 124 768T179 763Q210 763 233 767T271 768L272 751Q249 752 234 738T219 691V592Q242 594 265 594T312 595Q354 595 388 582T446 547T482 494T495 427Q495 389 480 355T440 293T383 248T317 225Q295 220 270 220T221 221L222 79Q222 60 228 48T246 28T271 19T300 19L299 -1Z"  />
<glyph unicode="&#xDF;" horiz-adv-x="952" d="M429 177Q429 124 409 88T358 30T286 -2T206 -12Q162 -12 125 -3T55 18Q55 31 56 49T59 87T63 122T68 148L85 144Q81 118 85 95T106 53T150 25T220 14Q246 14 273 20T321 39T357 75T371 129Q371 171 350 202T298 261T231 313T163 369T111 436T90 524Q90 561 103 591T142 643T200 675T275 687Q324 687 363 675T419 655Q419 647 418 635T414 609T410 581T405 553L391 556Q391 585 381 605T353 638T314 656T270 662Q211 662 178 635T144 557Q144 518 165 487T218 428T286 374T355 319T408 256T429 177ZM905 177Q905 124 885 88T834 30T762 -2T682 -12Q639 -12 601 -3T531 18Q531 31 532 49T535 87T539 122T544 148L561 144Q557 118 561 95T582 53T626 25T696 14Q722 14 749 20T797 39T833 75T847 129Q847 171 826 202T774 261T707 313T639 369T587 436T566 524Q566 561 579 591T618 643T676 675T751 687Q801 687 839 675T895 655Q895 647 894 635T890 609T886 581T881 553L868 556Q868 585 857 605T829 638T790 656T746 662Q687 662 654 635T620 557Q620 518 641 487T694 428T762 374T831 319T884 256T905 177Z"  />
<glyph unicode="&#xE0;" horiz-adv-x="645" d="M405 743L398 734L256 801Q247 806 247 814T258 840Q269 857 277 859T293 853L405 743ZM412 294L314 544L216 294H412ZM668 -1Q657 -4 638 -2T593 1T537 3T475 -2L472 14Q495 16 504 28T505 58L426 259H202L124 58Q116 40 125 28T157 14L153 -2Q122 4 98 4T56 2T24 -2T0 -1L-1 16Q10 15 21 15T44 21T65 38T83 71L323 677Q328 691 334 691T346 677L590 71Q599 50 608 39T627 22T647 16T669 16L668 -1Z"  />
<glyph unicode="&#xE1;" horiz-adv-x="645" d="M255 734L248 744L360 854Q368 862 376 860T396 841Q408 824 407 816T397 802L255 734ZM412 294L314 544L216 294H412ZM668 -1Q657 -4 638 -2T593 1T537 3T475 -2L472 14Q495 16 504 28T505 58L426 259H202L124 58Q116 40 125 28T157 14L153 -2Q122 4 98 4T56 2T24 -2T0 -1L-1 16Q10 15 21 15T44 21T65 38T83 71L323 677Q328 691 334 691T346 677L590 71Q599 50 608 39T627 22T647 16T669 16L668 -1Z"  />
<glyph unicode="&#xE2;" horiz-adv-x="645" d="M475 725L469 716L332 787L196 715L188 725L300 835Q307 842 313 844T332 846Q344 846 350 844T364 835L475 725ZM412 294L314 544L216 294H412ZM668 -1Q657 -4 638 -2T593 1T537 3T475 -2L472 14Q495 16 504 28T505 58L426 259H202L124 58Q116 40 125 28T157 14L153 -2Q122 4 98 4T56 2T24 -2T0 -1L-1 16Q10 15 21 15T44 21T65 38T83 71L323 677Q328 691 334 691T346 677L590 71Q599 50 608 39T627 22T647 16T669 16L668 -1Z"  />
<glyph unicode="&#xE3;" horiz-adv-x="645" d="M491 826Q478 812 467 801Q457 791 448 781T433 765Q417 748 403 742T376 737T352 746T330 763Q307 786 289 788T258 782Q252 778 241 771T218 757Q205 749 190 740L182 750Q196 764 209 776Q220 787 231 797T249 815Q276 843 301 840T347 816Q387 777 418 796Q423 800 434 806T456 820Q468 828 482 837L491 826ZM412 294L314 544L216 294H412ZM668 -1Q657 -4 638 -2T593 1T537 3T475 -2L472 14Q495 16 504 28T505 58L426 259H202L124 58Q116 40 125 28T157 14L153 -2Q122 4 98 4T56 2T24 -2T0 -1L-1 16Q10 15 21 15T44 21T65 38T83 71L323 677Q328 691 334 691T346 677L590 71Q599 50 608 39T627 22T647 16T669 16L668 -1Z"  />
<glyph unicode="&#xE4;" horiz-adv-x="645" d="M297 780Q297 766 288 756T264 746Q250 746 240 756T230 780Q230 794 240 803T264 813Q278 813 287 804T297 780ZM444 780Q444 766 434 756T410 746Q396 746 386 756T376 780Q376 794 386 803T410 813Q424 813 434 804T444 780ZM412 294L314 544L216 294H412ZM668 -1Q657 -4 638 -2T593 1T537 3T475 -2L472 14Q495 16 504 28T505 58L426 259H202L124 58Q116 40 125 28T157 14L153 -2Q122 4 98 4T56 2T24 -2T0 -1L-1 16Q10 15 21 15T44 21T65 38T83 71L323 677Q328 691 334 691T346 677L590 71Q599 50 608 39T627 22T647 16T669 16L668 -1Z"  />
<glyph unicode="&#xE5;" horiz-adv-x="645" d="M384 773Q384 793 370 807T336 821Q316 821 302 807T287 773Q287 753 301 739T336 724Q356 724 370 738T384 773ZM410 773Q410 741 389 720T336 698Q304 698 283 719T261 773Q261 804 282 825T336 847Q367 847 388 826T410 773ZM412 294L314 544L216 294H412ZM668 -1Q657 -4 638 -2T593 1T537 3T475 -2L472 14Q495 16 504 28T505 58L426 259H202L124 58Q116 40 125 28T157 14L153 -2Q122 4 98 4T56 2T24 -2T0 -1L-1 16Q10 15 21 15T44 21T65 38T83 71L323 677Q328 691 334 691T346 677L590 71Q599 50 608 39T627 22T647 16T669 16L668 -1Z"  />
<glyph unicode="&#xE6;" horiz-adv-x="915" d="M521 581L302 294H519L521 581ZM865 100Q865 91 864 78T862 50T858 23T854 -1L439 0L437 17Q451 16 465 18T491 26T510 42T518 70L519 259H273L120 58Q106 40 114 28T149 14L145 -2Q122 2 98 2T52 0T8 -2T-31 -1L-32 16Q-4 14 20 25T72 71L515 640Q504 651 487 654T448 657L449 673H837Q837 655 836 629T833 584L818 586Q820 609 807 624T764 639H604L606 374H782Q819 374 820 405L837 404Q838 396 836 380T834 349Q834 335 835 318T834 287L815 286Q817 315 807 327T768 340H606L608 93Q608 63 623 50T669 36H772Q814 36 830 53T848 102L865 100Z"  />
<glyph unicode="&#xE7;" horiz-adv-x="776" d="M722 644Q719 616 715 585T706 523L689 526Q691 586 636 621T457 656Q394 656 342 637T251 579T191 482T169 347Q169 278 190 218T250 113T344 43T466 17Q525 17 567 26T636 53T678 98T698 162L716 160Q715 145 713 126T709 89T703 53T698 23Q668 15 639 9T583 -3Q554 -8 522 -10T452 -12Q442 -12 433 -12T413 -11L389 -61Q410 -64 428 -69T459 -84T477 -106T477 -137Q471 -156 455 -165T416 -177T368 -178T319 -169L325 -151Q341 -156 357 -156T388 -154T412 -145T426 -130Q432 -112 416 -96T353 -75L386 -8Q316 2 260 31T165 106T105 211T84 339Q84 409 112 472T191 583T311 658T461 686Q510 686 551 681T626 667Q649 662 672 656T722 644Z"  />
<glyph unicode="&#xE8;" horiz-adv-x="517" d="M347 738L340 729L198 796Q189 801 189 809T200 835Q211 852 219 854T235 848L347 738ZM474 100Q474 91 473 78T471 50T467 23T464 -1L67 0L66 17Q79 16 92 18T116 26T133 42T140 70L143 605Q143 634 128 646T90 658L91 674H448Q448 656 448 630T445 585L430 587Q433 610 421 625T381 640H220L221 374H397Q431 374 432 405L448 404Q449 396 447 380T445 349Q445 335 446 318T446 287L428 286Q430 315 421 327T385 340H222L223 93Q223 63 237 50T279 36H388Q427 36 441 53T458 102L474 100Z"  />
<glyph unicode="&#xE9;" horiz-adv-x="517" d="M211 728L204 738L316 848Q324 856 332 854T352 835Q364 818 363 810T353 796L211 728ZM474 100Q474 91 473 78T471 50T467 23T464 -1L67 0L66 17Q79 16 92 18T116 26T133 42T140 70L143 605Q143 634 128 646T90 658L91 674H448Q448 656 448 630T445 585L430 587Q433 610 421 625T381 640H220L221 374H397Q431 374 432 405L448 404Q449 396 447 380T445 349Q445 335 446 318T446 287L428 286Q430 315 421 327T385 340H222L223 93Q223 63 237 50T279 36H388Q427 36 441 53T458 102L474 100Z"  />
<glyph unicode="&#xEA;" horiz-adv-x="517" d="M421 731L415 722L278 793L142 721L134 731L246 841Q253 848 259 850T278 852Q290 852 296 850T310 841L421 731ZM474 100Q474 91 473 78T471 50T467 23T464 -1L67 0L66 17Q79 16 92 18T116 26T133 42T140 70L143 605Q143 634 128 646T90 658L91 674H448Q448 656 448 630T445 585L430 587Q433 610 421 625T381 640H220L221 374H397Q431 374 432 405L448 404Q449 396 447 380T445 349Q445 335 446 318T446 287L428 286Q430 315 421 327T385 340H222L223 93Q223 63 237 50T279 36H388Q427 36 441 53T458 102L474 100Z"  />
<glyph unicode="&#xEB;" horiz-adv-x="517" d="M236 769Q236 755 227 745T203 735Q189 735 179 745T169 769Q169 783 179 792T203 802Q217 802 226 793T236 769ZM383 769Q383 755 373 745T349 735Q335 735 325 745T315 769Q315 783 325 792T349 802Q363 802 373 793T383 769ZM474 100Q474 91 473 78T471 50T467 23T464 -1L67 0L66 17Q79 16 92 18T116 26T133 42T140 70L143 605Q143 634 128 646T90 658L91 674H448Q448 656 448 630T445 585L430 587Q433 610 421 625T381 640H220L221 374H397Q431 374 432 405L448 404Q449 396 447 380T445 349Q445 335 446 318T446 287L428 286Q430 315 421 327T385 340H222L223 93Q223 63 237 50T279 36H388Q427 36 441 53T458 102L474 100Z"  />
<glyph unicode="&#xEC;" horiz-adv-x="341" d="M258 734L251 725L109 792Q100 797 100 805T111 831Q122 848 130 850T146 844L258 734ZM295 -1Q288 -3 276 -3T248 -1T216 2T181 4Q164 4 147 3T114 0T87 -2T67 -1L66 17Q94 13 117 25T140 69L143 608Q143 637 129 649T93 661L94 676Q108 680 130 676T181 671Q211 671 233 675T269 676L270 661Q247 661 233 649T219 608L222 69Q223 37 246 25T297 17L295 -1Z"  />
<glyph unicode="&#xED;" horiz-adv-x="341" d="M117 727L110 737L222 847Q230 855 238 853T258 834Q270 817 269 809T259 795L117 727ZM295 -1Q288 -3 276 -3T248 -1T216 2T181 4Q164 4 147 3T114 0T87 -2T67 -1L66 17Q94 13 117 25T140 69L143 608Q143 637 129 649T93 661L94 676Q108 680 130 676T181 671Q211 671 233 675T269 676L270 661Q247 661 233 649T219 608L222 69Q223 37 246 25T297 17L295 -1Z"  />
<glyph unicode="&#xEE;" horiz-adv-x="341" d="M319 727L313 718L176 789L40 717L32 727L144 837Q151 844 157 846T176 848Q188 848 194 846T208 837L319 727ZM295 -1Q288 -3 276 -3T248 -1T216 2T181 4Q164 4 147 3T114 0T87 -2T67 -1L66 17Q94 13 117 25T140 69L143 608Q143 637 129 649T93 661L94 676Q108 680 130 676T181 671Q211 671 233 675T269 676L270 661Q247 661 233 649T219 608L222 69Q223 37 246 25T297 17L295 -1Z"  />
<glyph unicode="&#xEF;" horiz-adv-x="341" d="M141 773Q141 759 132 749T108 739Q94 739 84 749T74 773Q74 787 84 796T108 806Q122 806 131 797T141 773ZM288 773Q288 759 278 749T254 739Q240 739 230 749T220 773Q220 787 230 796T254 806Q268 806 278 797T288 773ZM295 -1Q288 -3 276 -3T248 -1T216 2T181 4Q164 4 147 3T114 0T87 -2T67 -1L66 17Q94 13 117 25T140 69L143 608Q143 637 129 649T93 661L94 676Q108 680 130 676T181 671Q211 671 233 675T269 676L270 661Q247 661 233 649T219 608L222 69Q223 37 246 25T297 17L295 -1Z"  />
<glyph unicode="&#xF0;" horiz-adv-x="816" d="M406 356L389 319H203L205 94Q205 56 248 39T380 22Q442 22 493 44T580 108T637 207T657 337Q657 404 638 462T583 562T493 629T369 654Q348 654 325 653T280 651T237 647T202 641L203 356H406ZM742 342Q742 274 717 212T647 101T539 23T399 -6Q334 -6 275 -2T164 3Q129 3 100 -1T56 -2L54 16Q82 12 102 24T123 69L124 319H-47L-30 356H124L125 606Q125 635 106 647T65 659L66 675Q80 677 109 675T168 672Q186 672 215 673T277 677T339 680T391 682Q476 682 541 656T651 583T719 475T742 342Z"  />
<glyph unicode="&#xF1;" horiz-adv-x="775" d="M567 807Q554 793 543 782Q533 772 524 762T509 746Q493 729 479 723T452 718T428 727T406 744Q383 767 365 769T334 763Q328 759 317 752T294 738Q281 730 266 721L258 731Q272 745 285 757Q296 768 307 778T325 796Q352 824 377 821T423 797Q463 758 494 777Q499 781 510 787T532 801Q544 809 558 818L567 807ZM728 659Q705 660 688 653T671 621V5Q671 -6 666 -8T652 -2L150 528L152 52Q153 28 169 21T209 15L208 -2Q193 -5 171 -2T128 1Q108 1 85 -2T48 -2L47 15Q70 14 86 21T103 52L106 669Q106 680 111 682T126 674L625 154L622 621Q622 646 606 653T566 659L567 675Q581 678 604 676T647 673Q667 673 690 675T727 675L728 659Z"  />
<glyph unicode="&#xF2;" horiz-adv-x="880" d="M534 743L527 734L385 801Q376 806 376 814T387 840Q398 857 406 859T422 853L534 743ZM733 329Q733 389 711 448T648 553T552 627T432 656Q370 656 321 634T239 570T187 472T169 343Q169 282 191 224T254 121T350 47T470 19Q532 19 581 40T663 102T715 200T733 329ZM818 341Q818 253 785 187T698 77T580 10T450 -13Q381 -13 315 9T198 76T115 184T84 333Q84 421 117 487T203 597T321 664T450 687Q520 687 586 665T704 598T787 490T818 341Z"  />
<glyph unicode="&#xF3;" horiz-adv-x="880" d="M409 741L402 751L514 861Q522 869 530 867T550 848Q562 831 561 823T551 809L409 741ZM733 329Q733 389 711 448T648 553T552 627T432 656Q370 656 321 634T239 570T187 472T169 343Q169 282 191 224T254 121T350 47T470 19Q532 19 581 40T663 102T715 200T733 329ZM818 341Q818 253 785 187T698 77T580 10T450 -13Q381 -13 315 9T198 76T115 184T84 333Q84 421 117 487T203 597T321 664T450 687Q520 687 586 665T704 598T787 490T818 341Z"  />
<glyph unicode="&#xF4;" horiz-adv-x="880" d="M590 736L584 727L447 798L311 726L303 736L415 846Q422 853 428 855T447 857Q459 857 465 855T479 846L590 736ZM733 329Q733 389 711 448T648 553T552 627T432 656Q370 656 321 634T239 570T187 472T169 343Q169 282 191 224T254 121T350 47T470 19Q532 19 581 40T663 102T715 200T733 329ZM818 341Q818 253 785 187T698 77T580 10T450 -13Q381 -13 315 9T198 76T115 184T84 333Q84 421 117 487T203 597T321 664T450 687Q520 687 586 665T704 598T787 490T818 341Z"  />
<glyph unicode="&#xF5;" horiz-adv-x="880" d="M614 826Q601 812 590 801Q580 791 571 781T556 765Q540 748 526 742T499 737T475 746T453 763Q430 786 412 788T381 782Q375 778 364 771T341 757Q328 749 313 740L305 750Q319 764 332 776Q343 787 354 797T372 815Q399 843 424 840T470 816Q510 777 541 796Q546 800 557 806T579 820Q591 828 605 837L614 826ZM733 329Q733 389 711 448T648 553T552 627T432 656Q370 656 321 634T239 570T187 472T169 343Q169 282 191 224T254 121T350 47T470 19Q532 19 581 40T663 102T715 200T733 329ZM818 341Q818 253 785 187T698 77T580 10T450 -13Q381 -13 315 9T198 76T115 184T84 333Q84 421 117 487T203 597T321 664T450 687Q520 687 586 665T704 598T787 490T818 341Z"  />
<glyph unicode="&#xF6;" horiz-adv-x="880" d="M410 776Q410 762 401 752T377 742Q363 742 353 752T343 776Q343 790 353 799T377 809Q391 809 400 800T410 776ZM557 776Q557 762 547 752T523 742Q509 742 499 752T489 776Q489 790 499 799T523 809Q537 809 547 800T557 776ZM733 329Q733 389 711 448T648 553T552 627T432 656Q370 656 321 634T239 570T187 472T169 343Q169 282 191 224T254 121T350 47T470 19Q532 19 581 40T663 102T715 200T733 329ZM818 341Q818 253 785 187T698 77T580 10T450 -13Q381 -13 315 9T198 76T115 184T84 333Q84 421 117 487T203 597T321 664T450 687Q520 687 586 665T704 598T787 490T818 341Z"  />
<glyph unicode="&#xF7;" horiz-adv-x="0" />
<glyph unicode="&#xF8;" horiz-adv-x="880" d="M602 587Q564 619 519 637T421 656Q359 656 310 634T228 570T176 472T158 343Q158 281 181 223T246 118L602 587ZM722 329Q722 393 697 454T627 563L271 93Q309 59 356 39T459 19Q521 19 570 40T652 102T704 200T722 329ZM807 341Q807 253 774 187T687 77T569 10T439 -13Q384 -13 332 1T233 43L170 -40L141 -20L204 62Q145 107 109 174T73 333Q73 421 106 487T192 597T310 664T439 687Q493 687 543 675T639 636L699 715L727 696L668 617Q731 573 769 504T807 341Z"  />
<glyph unicode="&#xF9;" horiz-adv-x="726" d="M450 722L443 713L301 780Q292 785 292 793T303 819Q314 836 322 838T338 832L450 722ZM682 658Q660 659 647 652T633 621V199Q633 160 619 122T576 54T504 6T405 -13Q333 -13 283 0T201 39T157 106T143 201L145 608Q145 637 131 649T95 660L96 676Q110 680 132 676T183 671Q213 671 235 675T271 676L272 660Q249 661 235 649T222 608L224 214Q225 112 273 65T418 18Q451 18 482 29T537 63T576 119T591 196L590 621Q590 645 576 652T540 658L541 674Q555 677 573 675T611 672Q631 672 649 674T682 674V658Z"  />
<glyph unicode="&#xFA;" horiz-adv-x="726" d="M349 710L342 720L454 830Q462 838 470 836T490 817Q502 800 501 792T491 778L349 710ZM682 658Q660 659 647 652T633 621V199Q633 160 619 122T576 54T504 6T405 -13Q333 -13 283 0T201 39T157 106T143 201L145 608Q145 637 131 649T95 660L96 676Q110 680 132 676T183 671Q213 671 235 675T271 676L272 660Q249 661 235 649T222 608L224 214Q225 112 273 65T418 18Q451 18 482 29T537 63T576 119T591 196L590 621Q590 645 576 652T540 658L541 674Q555 677 573 675T611 672Q631 672 649 674T682 674V658Z"  />
<glyph unicode="&#xFB;" horiz-adv-x="726" d="M548 738L542 729L405 800L269 728L261 738L373 848Q380 855 386 857T405 859Q417 859 423 857T437 848L548 738ZM682 658Q660 659 647 652T633 621V199Q633 160 619 122T576 54T504 6T405 -13Q333 -13 283 0T201 39T157 106T143 201L145 608Q145 637 131 649T95 660L96 676Q110 680 132 676T183 671Q213 671 235 675T271 676L272 660Q249 661 235 649T222 608L224 214Q225 112 273 65T418 18Q451 18 482 29T537 63T576 119T591 196L590 621Q590 645 576 652T540 658L541 674Q555 677 573 675T611 672Q631 672 649 674T682 674V658Z"  />
<glyph unicode="&#xFC;" horiz-adv-x="726" d="M360 752Q360 738 351 728T327 718Q313 718 303 728T293 752Q293 766 303 775T327 785Q341 785 350 776T360 752ZM507 752Q507 738 497 728T473 718Q459 718 449 728T439 752Q439 766 449 775T473 785Q487 785 497 776T507 752ZM682 658Q660 659 647 652T633 621V199Q633 160 619 122T576 54T504 6T405 -13Q333 -13 283 0T201 39T157 106T143 201L145 608Q145 637 131 649T95 660L96 676Q110 680 132 676T183 671Q213 671 235 675T271 676L272 660Q249 661 235 649T222 608L224 214Q225 112 273 65T418 18Q451 18 482 29T537 63T576 119T591 196L590 621Q590 645 576 652T540 658L541 674Q555 677 573 675T611 672Q631 672 649 674T682 674V658Z"  />
<glyph unicode="&#xFD;" horiz-adv-x="562" d="M269 735L262 745L374 855Q382 863 390 861T410 842Q422 825 421 817T411 803L269 735ZM566 659Q555 660 544 659T522 653T499 637T477 605L325 329L327 68Q327 36 350 24T401 15L400 0Q393 -2 381 -2T353 0T321 3T286 5Q269 5 252 4T219 1T192 -1T172 0L170 15Q198 12 221 24T244 68L246 305L83 606Q72 625 62 636T40 653T18 659T-4 659L-3 675Q7 678 26 676T69 672T123 670T183 675L186 661Q170 657 163 647T167 618L300 368L438 618Q457 652 419 661L422 675Q451 670 473 670T512 673T542 676T565 675L566 659Z"  />
<glyph unicode="&#xFE;" horiz-adv-x="535" d="M395 354Q395 383 386 409T361 456T322 489T273 501Q258 501 239 498T208 493L210 222Q307 209 351 244T395 354ZM284 -1Q277 -3 265 -3T237 -1T205 2T170 4Q152 4 135 3T103 0T75 -2T56 -1L54 17Q82 13 105 25T128 70L131 608Q131 637 117 649T81 661L82 676Q96 679 118 675T170 671Q199 671 221 675T257 676L258 661Q236 662 222 650T208 608V521Q230 523 252 523T296 524Q336 524 368 513T423 481T458 434T470 376Q470 343 456 313T418 258T364 218T301 198Q281 194 257 194T210 194L211 70Q211 37 234 25T285 17L284 -1Z"  />
<glyph unicode="&#xFF;" horiz-adv-x="562" d="M271 759Q271 745 262 735T238 725Q224 725 214 735T204 759Q204 773 214 782T238 792Q252 792 261 783T271 759ZM418 759Q418 745 408 735T384 725Q370 725 360 735T350 759Q350 773 360 782T384 792Q398 792 408 783T418 759ZM577 659Q566 660 555 659T533 653T510 637T488 605L336 329L338 68Q338 36 361 24T412 15L411 0Q404 -2 392 -2T364 0T332 3T297 5Q280 5 263 4T230 1T203 -1T183 0L181 15Q209 12 232 24T255 68L257 305L94 606Q83 625 73 636T51 653T29 659T7 659L8 675Q18 678 37 676T80 672T134 670T194 675L197 661Q181 657 174 647T178 618L311 368L449 618Q468 652 430 661L433 675Q462 670 484 670T523 673T553 676T576 675L577 659Z"  />
<glyph unicode="&#x152;" horiz-adv-x="912" d="M739 373Q739 442 716 508T652 627T554 712T432 744Q369 744 319 719T235 648T182 536T163 390Q163 321 186 255T250 137T348 54T470 22Q533 22 583 46T667 117T720 227T739 373ZM2656 -199Q2528 -292 2375 -349T2059 -428T1730 -441T1409 -388Q1343 -370 1250 -331T1049 -239T821 -123T582 8Q549 -5 516 -10T450 -15Q379 -15 312 11T193 87T108 210T76 379Q76 445 92 501T135 601T198 679T276 735T362 769T450 781Q522 781 589 755T709 679T794 556T826 387Q826 327 813 276T778 182T724 107T657 49Q769 -12 891 -71T1134 -184T1367 -280T1572 -350Q1721 -393 1873 -395T2166 -370T2430 -293T2643 -180L2656 -199Z"  />
<glyph unicode="&#x153;" horiz-adv-x="912" d="M739 373Q739 442 716 508T652 627T554 712T432 744Q369 744 319 719T235 648T182 536T163 390Q163 321 186 255T250 137T348 54T470 22Q533 22 583 46T667 117T720 227T739 373ZM1891 -113Q1811 -171 1716 -206T1518 -256T1313 -264T1113 -231Q1071 -220 1012 -197T882 -141T735 -70T584 11Q517 -15 450 -15Q379 -15 312 11T193 87T108 210T76 379Q76 445 92 501T135 601T198 679T276 735T362 769T450 781Q522 781 589 755T709 679T794 556T826 387Q826 327 813 276T778 182T724 107T657 49Q681 37 723 17T817 -27T929 -78T1045 -129T1154 -174T1244 -205Q1332 -231 1422 -231T1595 -214T1752 -165T1882 -97L1891 -113Z"  />
<glyph unicode="&#x160;" horiz-adv-x="500" d="M449 971L338 861Q330 853 324 852T306 850Q293 850 287 851T273 861L162 970L169 980L306 909L442 980L449 971ZM459 201Q459 141 439 100T385 33T309 -3T225 -14Q179 -14 139 -3T65 21Q65 35 66 56T70 98T74 139T79 168L97 163Q92 134 97 108T118 61T164 28T239 16Q267 16 295 22T346 44T383 85T398 147Q398 195 376 230T322 297T251 357T180 419T125 495T103 595Q103 638 117 672T157 730T219 767T297 780Q323 780 346 776T390 766T425 754T449 744Q448 735 447 722T443 692T439 660T434 629L420 632Q420 665 409 688T379 725T339 746T292 752Q230 752 195 721T160 633Q160 588 182 553T237 487T309 425T381 362T437 290T459 201Z"  />
<glyph unicode="&#x161;" horiz-adv-x="476" d="M410 878L299 768Q291 760 285 759T267 757Q254 757 248 758T234 768L123 877L130 887L267 816L403 887L410 878ZM429 177Q429 124 409 88T358 30T286 -2T206 -12Q162 -12 125 -3T55 18Q55 31 56 49T59 87T63 122T68 148L85 144Q81 118 85 95T106 53T150 25T220 14Q246 14 273 20T321 39T357 75T371 129Q371 171 350 202T298 261T231 313T163 369T111 436T90 524Q90 561 103 591T142 643T200 675T275 687Q324 687 363 675T419 655Q419 647 418 635T414 609T410 581T405 553L391 556Q391 585 381 605T353 638T314 656T270 662Q211 662 178 635T144 557Q144 518 165 487T218 428T286 374T355 319T408 256T429 177Z"  />
<glyph unicode="&#x178;" horiz-adv-x="590" d="M294 856Q294 842 285 832T261 822Q247 822 237 832T227 856Q227 870 237 879T261 889Q275 889 284 880T294 856ZM441 856Q441 842 431 832T407 822Q393 822 383 832T373 856Q373 870 383 879T407 889Q421 889 431 880T441 856ZM606 749Q594 750 583 749T559 742T536 723T512 688L353 374L354 77Q354 59 361 47T379 27T404 18T433 17L431 0Q423 -2 411 -2T382 0T348 4T311 6Q293 6 275 4T241 1T211 -1T191 0L189 17Q204 15 218 17T243 27T261 46T268 77L269 346L98 688Q87 710 76 723T53 742T30 749T6 749L7 767Q18 770 38 768T84 764T140 762T203 768L206 751Q190 746 183 735T186 702L327 418L472 702Q491 741 451 751L455 768Q485 762 508 762T549 764T580 768T605 767L606 749Z"  />
<glyph unicode="&#x17D;" horiz-adv-x="639" d="M484 965L373 855Q365 847 359 846T341 844Q328 844 322 845T308 855L197 964L204 974L341 903L477 974L484 965ZM146 46H525Q560 46 575 63T592 116L608 114Q609 103 608 89T606 58T602 27T598 0H35Q16 0 26 14L492 723H135Q77 723 77 668H61Q61 689 64 717T69 766H605Q620 766 612 755L146 46Z"  />
<glyph unicode="&#x17E;" horiz-adv-x="608" d="M476 877L365 767Q357 759 351 758T333 756Q320 756 314 757T300 767L189 876L196 886L333 815L469 886L476 877ZM139 41L500 40Q533 40 547 55T563 102L579 100Q579 91 578 78T576 51T572 24T569 0H34Q17 0 25 13L468 636H129Q74 636 74 588H59Q59 606 61 631T66 674H575Q583 674 585 672T582 664L139 41Z"  />
<glyph unicode="&#x192;" horiz-adv-x="447" d="M420 613L413 527H403Q399 549 387 562T359 580T326 583T295 571Q280 561 269 538T248 484T231 421T216 358L218 355H365L347 323H212L207 320Q196 269 186 225T166 142Q152 85 132 38T83 -41T14 -87T-82 -92L-58 -48Q-25 -71 -1 -68T41 -38T73 35T102 146Q112 193 122 237T141 320L139 323H54L73 355H144L149 358Q165 418 184 468T234 554T308 606T420 613Z"  />
<glyph unicode="&#x2C6;" horiz-adv-x="382" d="M336 654L330 645L193 716L57 644L49 654L161 764Q168 771 174 773T193 775Q205 775 211 773T225 764L336 654Z"  />
<glyph unicode="&#x2DC;" horiz-adv-x="382" d="M356 751Q343 737 332 726Q322 716 313 706T298 690Q282 673 268 667T241 662T217 671T195 688Q172 711 154 713T123 707Q117 703 106 696T83 682Q70 674 55 665L47 675Q61 689 74 701Q85 712 96 722T114 740Q141 768 166 765T212 741Q252 702 283 721Q288 725 299 731T321 745Q333 753 347 762L356 751Z"  />
<glyph unicode="&#x3BC;" horiz-adv-x="0" />
<glyph unicode="&#x2013;" horiz-adv-x="566" d="M524 340L507 298H48L65 340H524Z"  />
<glyph unicode="&#x2014;" horiz-adv-x="784" d="M740 340L723 298H48L65 340H740Z"  />
<glyph unicode="&#x2018;" horiz-adv-x="204" d="M152 763Q131 744 122 729T113 702T118 680T131 659Q140 645 134 629T113 606Q93 599 82 608T65 631Q59 649 63 668T77 706T104 743T138 777L152 763Z"  />
<glyph unicode="&#x2019;" horiz-adv-x="204" d="M141 749Q147 731 143 712T129 674T102 637T68 603L53 618Q74 637 83 651T92 678T88 700T75 722Q66 736 72 752T92 774Q112 782 124 773T141 749Z"  />
<glyph unicode="&#x201A;" horiz-adv-x="197" d="M136 44Q142 26 138 7T124 -32T97 -69T63 -102L48 -88Q70 -69 78 -54T87 -27T83 -5T70 16Q61 30 67 46T88 68Q108 76 119 67T136 44Z"  />
<glyph unicode="&#x201C;" horiz-adv-x="341" d="M153 762Q132 743 123 729T114 702T118 680T131 658Q140 644 134 628T114 606Q94 598 82 607T65 630Q59 648 63 667T77 706T104 743T138 777L153 762ZM291 762Q270 743 261 729T252 702T256 680T269 658Q279 644 273 628T252 606Q232 598 220 607T203 630Q197 648 201 667T215 706T242 743T276 777L291 762Z"  />
<glyph unicode="&#x201D;" horiz-adv-x="341" d="M139 749Q145 731 141 712T127 674T100 637T66 603L51 618Q72 637 81 651T90 678T85 700T72 722Q63 736 69 752T90 774Q110 782 122 773T139 749ZM277 749Q283 731 279 712T265 674T238 637T204 603L189 618Q210 637 219 651T228 678T224 700T211 722Q201 736 207 752T228 774Q248 782 260 773T277 749Z"  />
<glyph unicode="&#x201E;" horiz-adv-x="336" d="M136 44Q142 26 138 7T124 -31T97 -68T63 -102L48 -87Q70 -68 78 -54T87 -27T83 -5T70 17Q61 31 67 47T88 69Q108 77 119 68T136 44ZM274 44Q280 26 276 7T262 -31T235 -68T201 -102L187 -87Q208 -68 217 -54T226 -27T221 -5T208 17Q199 31 205 47T226 69Q246 77 257 68T274 44Z"  />
<glyph unicode="&#x2020;" horiz-adv-x="514" d="M458 517L407 471Q381 488 348 496T269 505Q270 459 278 426T304 366Q297 350 291 307T279 209T270 94T266 -16H248Q248 34 245 94T236 209T224 308T210 367Q242 416 243 505Q197 504 165 496T107 471L56 517L107 562Q133 545 165 537T243 528Q242 618 210 667L256 718L304 667Q271 617 270 528Q316 529 348 537T407 562L458 517Z"  />
<glyph unicode="&#x2021;" horiz-adv-x="743" d="M483 97Q447 132 414 161T350 218T289 277T226 346Q204 328 185 310T153 271T131 225T123 168Q123 130 136 102T173 55T229 27T298 17Q358 17 401 37T483 97ZM382 558Q382 584 374 604T352 637T320 657T283 664Q238 664 213 638T187 558Q187 521 210 488T269 412Q292 429 312 445T348 478T373 514T382 558ZM777 33Q735 1 700 -8T632 -10T569 21T504 78Q464 32 409 9T292 -14Q239 -14 194 -6T115 24T62 79T43 166Q43 201 56 229T93 282T145 328T207 371Q172 413 152 450T131 531Q131 611 174 650T298 689Q320 689 344 684T387 665T419 629T432 573Q432 541 420 517T387 472T340 433T285 394Q315 357 344 327T402 270T462 215T525 156Q540 182 549 205T561 251Q563 280 544 295T466 313L468 336Q502 332 531 330T583 327Q609 327 637 329T700 335L702 312Q672 310 655 305T627 293T613 274T604 250Q595 221 580 192T546 135Q580 103 609 80T664 46T715 34T768 48Q772 41 773 39T776 34Q777 32 777 33Z"  />
<glyph unicode="&#x2022;" horiz-adv-x="282" d="M221 363Q221 330 198 307T143 284Q111 284 88 307T65 363Q65 395 88 418T143 441Q175 441 198 418T221 363Z"  />
<glyph unicode="&#x2026;" horiz-adv-x="687" d="M175 32Q175 14 162 1T131 -12Q113 -12 101 1T88 32Q88 50 100 62T131 75Q149 75 162 63T175 32ZM387 32Q387 14 375 1T344 -12Q326 -12 313 1T300 32Q300 50 313 62T344 75Q362 75 374 63T387 32ZM599 32Q599 14 587 1T556 -12Q538 -12 525 1T512 32Q512 50 525 62T556 75Q574 75 586 63T599 32Z"  />
<glyph unicode="&#x2030;" horiz-adv-x="677" d="M456 539Q456 583 444 621T409 686T354 730T283 746Q266 746 248 743T219 738L220 358Q287 342 332 351T405 386T444 453T456 539ZM700 -3Q674 -7 646 -7T590 -1T537 22T492 67Q451 125 414 186T332 322Q280 312 220 327L222 111Q222 80 228 61T246 32T271 19T300 18L298 -2Q290 -4 278 -3T249 -1T215 2T179 4Q161 4 143 3T108 0T79 -3T59 -2L57 18Q72 16 86 18T111 27T128 46T135 78L138 689Q138 722 123 736T85 749L86 767Q103 769 125 767T178 764Q210 764 245 768T327 773Q383 773 422 756T486 712T522 649T533 578Q533 552 527 522T506 461T467 403T408 353Q426 323 447 289T490 220T533 153T574 93Q589 72 601 57T626 31T657 17T699 14L700 -3Z"  />
<glyph unicode="&#x2039;" horiz-adv-x="261" d="M207 211L188 197Q161 221 136 243Q115 262 94 280T62 310Q53 318 51 324T49 344Q49 358 51 364T62 379Q73 389 94 407T136 445Q161 467 188 491L207 477L116 344L207 211Z"  />
<glyph unicode="&#x203A;" horiz-adv-x="261" d="M207 344Q207 330 205 324T193 310Q182 299 161 281T119 243Q94 221 68 197L49 211L139 344L49 477L68 491Q94 467 119 445Q139 426 160 408T193 379Q202 371 204 365T207 344Z"  />
<glyph unicode="&#x20AC;" horiz-adv-x="603" d="M405 -11Q351 -11 300 5T208 54T137 133T96 243H22L38 278H91Q90 286 90 294T90 311Q90 334 93 357H22L38 392H98Q112 454 144 500T218 578T310 624T406 640Q428 640 450 637T490 630T523 620T546 612Q544 598 541 571T532 520L517 523Q517 548 507 565T481 593T444 609T405 614Q359 614 320 599T251 554T200 484T170 392H475L459 357H165Q164 348 164 339T164 320Q164 309 164 299T166 278H428L412 243H173Q183 198 205 157T258 86T330 37T417 19Q432 19 447 21T477 32T501 54T515 94H530Q532 71 532 43T531 0Q514 -4 481 -7T405 -11Z"  />
<glyph unicode="&#x2122;" horiz-adv-x="829" d="M349 770Q350 762 347 752Q346 747 346 743T344 735Q342 727 342 716T339 694L321 696Q325 727 307 727H226L228 436Q228 422 238 418T267 415L265 397Q258 395 251 395T236 396Q228 397 219 397T201 398Q193 398 184 398T167 396Q159 395 152 395T138 397L136 415Q154 413 164 417T175 436L177 727H92Q81 727 76 719T66 695L49 697Q50 707 52 719T56 739Q57 747 57 755T58 770L74 771Q75 761 77 758T84 755H317Q332 755 332 771L349 770ZM786 396Q775 393 764 394T741 396Q727 398 711 398T675 394L671 412Q685 414 690 418T694 431L680 626L571 402Q566 392 561 392T551 402L434 626L422 431Q421 423 426 419T445 412L441 394Q421 398 408 398T385 396Q375 395 367 394T348 396L347 414Q388 411 389 438L409 752Q409 764 415 764T427 753L570 477L705 753Q710 761 716 763T724 752L745 438Q746 411 787 414L786 396Z"  />

</font>
</defs>
</svg>
